[ Сегодня идет свободное скачивание без начисления Download ]


Статистика раздачи
Нет
 
   
 
Top  
 
 
Весёлые» каникулы
Get the Gringo
«Plan your getaway»
- Год выпуска: 2012
Страна: США
Производство: Airborne Productions
Жанр: боевик, триллер, драма, криминал-Перевод 1: Профессиональный (полное дублирование) (русский, украинский)
Перевод 2: Одноголосый закадровый (А. Багичев)
Субтитры: русские, английские
Режиссер: Адриан Грюнберг / Adrian Grunberg
В ролях:
Мэл Гибсон (Driver), Кевин Эрнандез (Kid), Долорес Эредия (Kid's Mom), Хесус Очоа (Caracas), Петер Стормаре (Frank), Дин Норрис (Bill), Боб Гантон (Mr. Kaufmann), Скотт Коэн (Frank's Lawyer), София Сиснига (20 Year Old Bombshell), Стефани Николь Лемелин (Frank's Lawyer's Secretary), Патрик Бошо (Surgeon), Жерардо Тарачена (Ramiro)
Дублёры: Михаил Георгиу (Driver), Всеволод Кузнецов (Frank), Михаил Тихонов (Carnal), Борис Быстров, Алексей Мясников, Наталья Гребенкина, Василий Бочкарёв, Андрей Градов-Описание: Лента расскажет о пойманном мексиканскими властями преступнике, заключенном в полную наркотиков и насилия тюрьму...-
MPAA: R - Лицам до 17 лет обязательно присутствие взрослого-Рип от DON
Дорожка №2 получена наложением чистого голоса на центр декодированного DTS-HD. За чистый голос А. Багичева большое спасибо greaser-Качество: BDRip 1080p
Продолжительность: 01:35:59
Формат: Matroska
Видеокодек: AVC
Аудиокодек: AC3, DTS
Видео: MPEG-4 AVC Video / 14,5 Mbps / 1080p / 23.976 fps / 16:9 / High Profile 4.1
Аудио: Russian / DTS Audio / 5.1 / 48 kHz / 768 kbps / 24-bit - дубляж
Аудио: Russian / DTS Audio 5.1 / 48 kHz / 1509 kbps / 24-bit - Багичев
Аудио: Ukrainian / Dolby Digital Audio 5.1 / 48 kHz / 384 kbps / 16-bit - дубляж
Аудио: English / DTS Audio 5.1 / 48 kHz / 1509 kbps / 24-bit - оригинал
Субтитры №1: Russian
Субтитры №2: English
Субтитры №3: English SDH

MediaInfo

Общее
Уникальный идентификатор : 198602134764228438327761602403975985032 (0x9569613CF1656EA086794F48E78E7788)
Полное имя : D:\Get.the.Gringo.2012.1080p.Bluray.2xRus.Ukr.Eng.mkv
Формат : Matroska
Версия формата : Version 2
Размер файла : 12,5 Гбайт
Продолжительность : 1 ч. 35 м.
Общий поток : 18,6 Мбит/сек
Название фильма : Get the Gringo (2012)
Дата кодирования : UTC 2012-07-17 19:24:27
Программа кодирования : mkvmerge v5.5.0 ('Healer') built on Apr 6 2012 21:43:24
Библиотека кодирования : libebml v1.2.3 + libmatroska v1.3.0
Видео
Идентификатор : 1
Формат : AVC
Формат/Информация : Advanced Video Codec
Профиль формата : High@L4.1
Параметр CABAC формата : Да
Параметр ReFrames формата : 5 кадров
Режим смешивания : Header stripping
Идентификатор кодека : V_MPEG4/ISO/AVC
Продолжительность : 1 ч. 35 м.
Битрейт : 14,5 Мбит/сек
Ширина : 1920 пикселей
Высота : 800 пикселей
Соотношение сторон : 2,40:1
Частота кадров : 23,976 кадра/сек
Цветовое пространство : YUV
Субдискретизация насыщенности : 4:2:0
Битовая глубина : 8 бит
Тип развёртки : Прогрессивная
Бит/(Пиксели*Кадры) : 0.394
Размер потока : 9,47 Гбайт (76%)
Библиотека кодирования : x264 core 116 r2057 0ba8a9c
Настройки программы : cabac=1 / ref=5 / deblock=1:-3:-3 / analyse=0x3:0x133 / me=umh / subme=10 / psy=1 / psy_rd=1.00:0.00 / mixed_ref=1 / me_range=32 / chroma_me=1 / trellis=2 / 8x8dct=1 / cqm=0 / deadzone=21,11 / fast_pskip=0 / chroma_qp_offset=-2 / threads=14 / sliced_threads=0 / nr=0 / decimate=0 / interlaced=0 / bluray_compat=0 / constrained_intra=0 / bframes=7 / b_pyramid=2 / b_adapt=2 / b_bias=0 / direct=3 / weightb=1 / open_gop=0 / weightp=2 / keyint=250 / keyint_min=23 / scenecut=40 / intra_refresh=0 / rc_lookahead=40 / rc=2pass / mbtree=0 / bitrate=14500 / ratetol=1.0 / qcomp=0.65 / qpmin=0 / qpmax=40 / qpstep=4 / cplxblur=20.0 / qblur=0.5 / vbv_maxrate=50000 / vbv_bufsize=50000 / nal_hrd=none / ip_ratio=1.25 / pb_ratio=1.25 / aq=1:0.65
Язык : English
Default : Нет
Forced : Нет
Аудио #1
Идентификатор : 2
Формат : DTS
Формат/Информация : Digital Theater Systems
Режим смешивания : Header stripping
Идентификатор кодека : A_DTS
Продолжительность : 1 ч. 35 м.
Вид битрейта : Постоянный
Битрейт : 755 Кбит/сек
Каналы : 6 каналов
Расположение каналов : Front: L C R, Side: L R, LFE
Частота : 48,0 КГц
Битовая глубина : 24 бит
Метод сжатия : С потерями
Размер потока : 518 Мбайт (4%)
Заголовок : Дубляж
Язык : Russian
Default : Да
Forced : Нет
Аудио #2
Идентификатор : 3
Формат : DTS
Формат/Информация : Digital Theater Systems
Режим смешивания : Header stripping
Идентификатор кодека : A_DTS
Продолжительность : 1 ч. 35 м.
Вид битрейта : Постоянный
Битрейт : 1510 Кбит/сек
Каналы : 6 каналов
Расположение каналов : Front: L C R, Side: L R, LFE
Частота : 48,0 КГц
Битовая глубина : 24 бит
Метод сжатия : С потерями
Размер потока : 1,01 Гбайт (8%)
Заголовок : Одноголосый закадровый - А. Багичев
Язык : Russian
Default : Нет
Forced : Нет
Аудио #3
Идентификатор : 4
Формат : AC-3
Формат/Информация : Audio Coding 3
Расширение режима : CM (complete main)
Параметр Endianness формата : Big
Режим смешивания : Header stripping
Идентификатор кодека : A_AC3
Продолжительность : 1 ч. 35 м.
Вид битрейта : Постоянный
Битрейт : 384 Кбит/сек
Каналы : 6 каналов
Расположение каналов : Front: L C R, Side: L R, LFE
Частота : 48,0 КГц
Битовая глубина : 16 бит
Метод сжатия : С потерями
Размер потока : 264 Мбайт (2%)
Заголовок : Дубляж
Язык : Ukrainian
Default : Нет
Forced : Нет
Аудио #4
Идентификатор : 5
Формат : DTS
Формат/Информация : Digital Theater Systems
Режим смешивания : Header stripping
Идентификатор кодека : A_DTS
Продолжительность : 1 ч. 35 м.
Вид битрейта : Постоянный
Битрейт : 1510 Кбит/сек
Каналы : 6 каналов
Расположение каналов : Front: L C R, Side: L R, LFE
Частота : 48,0 КГц
Битовая глубина : 24 бит
Метод сжатия : С потерями
Задержка видео : 11 мс.
Размер потока : 1,01 Гбайт (8%)
Язык : English
Default : Нет
Forced : Нет
Текст #1
Идентификатор : 6
Формат : UTF-8
Идентификатор кодека : S_TEXT/UTF8
Идентификатор кодека/Информация : UTF-8 Plain Text
Заголовок : Russian
Язык : Russian
Default : Нет
Forced : Нет
Текст #2
Идентификатор : 7
Формат : UTF-8
Идентификатор кодека : S_TEXT/UTF8
Идентификатор кодека/Информация : UTF-8 Plain Text
Заголовок : English
Язык : English
Default : Нет
Forced : Нет
Текст #3
Идентификатор : 8
Формат : UTF-8
Идентификатор кодека : S_TEXT/UTF8
Идентификатор кодека/Информация : UTF-8 Plain Text
Заголовок : English SDH
Язык : English
Default : Нет
Forced : Нет
Меню
00:00:00.000 : en:00:00:00.000
00:06:04.781 : en:00:06:04.781
00:10:42.100 : en:00:10:42.100
00:13:47.577 : en:00:13:47.577
00:16:02.795 : en:00:16:02.795
00:18:40.745 : en:00:18:40.745
00:23:49.970 : en:00:23:49.970
00:26:29.463 : en:00:26:29.463
00:30:06.263 : en:00:30:06.263
00:35:37.594 : en:00:35:37.594
00:38:36.230 : en:00:38:36.230
00:40:50.698 : en:00:40:50.698
00:45:16.130 : en:00:45:16.130
00:51:05.479 : en:00:51:05.479
00:54:01.279 : en:00:54:01.279
00:57:31.197 : en:00:57:31.197
01:00:53.399 : en:01:00:53.399
01:05:44.273 : en:01:05:44.273
01:09:17.862 : en:01:09:17.862
01:13:33.158 : en:01:13:33.158
01:18:43.093 : en:01:18:43.093
01:23:20.704 : en:01:23:20.704
01:25:49.185 : en:01:25:49.185
01:28:19.377 : en:01:28:19.377
[th]http://torrentsclub.org/pictures/8c90d9647b2ec7f3db...2c170aa.png[/th] [th]http://torrentsclub.org/pictures/1b8f516a78f73ca513...5994af8.png[/th] [th]http://torrentsclub.org/pictures/69ab7c305bd48381bd...fbe4e92.png[/th]

[Цитировать]



Показать сообщения:    

Текущее время: 09-Дек 06:56

Часовой пояс: UTC + 3


Вы не можете начинать темы
Вы не можете отвечать на сообщения
Вы не можете редактировать свои сообщения
Вы не можете удалять свои сообщения
Вы не можете голосовать в опросах
Вы не можете прикреплять файлы к сообщениям
Вы не можете скачивать файлы

!ВНИМАНИЕ!
Сайт не предоставляет электронные версии произведений, а занимается лишь коллекционированием и каталогизацией ссылок, присылаемых и публикуемых на форуме нашими читателями. Если вы являетесь правообладателем какого-либо представленного материала и не желаете, чтобы ссылка на него находилась в нашем каталоге, свяжитесь с нами, и мы незамедлительно удалим ее. Файлы для обмена на трекере предоставлены пользователями сайта, и администрация не несет ответственности за их содержание. Просьба не заливать файлы, защищенные авторскими правами, а также файлы нелегального содержания!