[ Сегодня идет свободное скачивание без начисления Download ]


Статистика раздачи
Нет
 
   
 
Top  
 
 
-Оз: Великий и Ужасный / Oz the Great and Powerful
«Find yourself in Oz.»-
Страна: США
Жанр: фэнтези, приключения, комедия, семейный.
Год выпуска: 2013
Продолжительность: 02:10:29
Перевод: Профессиональный (дублированный)
Cубтитры: русские, английские.
Оригинальная аудиодорожка: английский.
Режиссер: Сэм Рэйми / Sam Raimi
В ролях: Джеймс Франко, Мила Кунис, Рейчел Вайс, Мишель Уильямс, Зак Брафф, Билл Коббс, Джои Кинг, Тони Кокс, Стивен Р. Харт, Эбигейл Спенсер.
Описание: Когда ураган забрасывает циркового фокусника Оскара Диггса из пыльного Канзаса в волшебную страну Оз, склонный к мошенничеству циркач полагает, что он поймал удачу за хвост - ведь с помощью своих трюков он с легкостью может добыть в новых землях и славу и богатство.
Однако его ждёт встреча с тремя чародейками, Теодорой, Эванорой и Глиндой, которые сомневаются в том, тот ли это великий волшебник, появления которого ждали легковерные жители страны Оз. Волей-неволей, пришелец оказывается втянутым в противостояние эпического масштаба, и ему приходится использовать весь свой «магический» арсенал, с добавлением толики настоящего волшебства.
В ситуации выбора между Добром и Злом, Оскару Диггсу предстоит не только стать Великим и Ужасным Волшебником из Страны Оз, но и немного измениться к лучшему.- -Качество видео: BDRip-AVC (Oz the Great and Powerful 2013 1080p Blu-ray Remux AVC DTS-HD MA 7.1)
Формат видео: MKV
Видео: 1200x500 (2.40:1), 3 889 kbps, 23,976 fps, 0.270bpp
Аудио 1: 48 kHz, AC3 Dolby Digital, 3/2 (L,C,R,l,r) + LFE ch, ~448.00 kbps avg / Dub
Аудио 2: 48 kHz, AC3 Dolby Digital, 3/2 (L,C,R,l,r) + LFE ch, ~448.00 kbps avg / Eng
Cубтитры: русские, английские.
Навигация по главам: есть. (главы подписаны.)

x264

264 [info]: frame I:1538 Avg QP:13.24 size:120604 PSNR Mean Y:49.92 U:59.35 V:58.68 Avg:50.74 Global:49.91
x264 [info]: frame P:47349 Avg QP:16.64 size: 40072 PSNR Mean Y:47.25 U:57.59 V:56.87 Avg:48.08 Global:47.06
x264 [info]: frame B:138845 Avg QP:18.59 size: 12412 PSNR Mean Y:46.63 U:57.24 V:56.29 Avg:47.46 Global:46.43
x264 [info]: consecutive B-frames: 3.7% 5.1% 8.7% 32.5% 19.1% 24.2% 3.8% 1.5% 0.6% 0.2% 0.1% 0.1% 0.1% 0.1% 0.1% 0.0% 0.1%
x264 [info]: mb I I16..4: 11.4% 62.5% 26.1%
x264 [info]: mb P I16..4: 0.8% 10.7% 2.7% P16..4: 31.8% 24.0% 18.5% 1.7% 0.7% skip: 9.0%
x264 [info]: mb B I16..4: 0.1% 1.0% 0.5% B16..8: 31.8% 13.3% 4.8% direct: 7.8% skip:40.7% L0:38.8% L1:39.5% BI:21.8%
x264 [info]: 8x8 transform intra:71.3% inter:51.7%
x264 [info]: direct mvs spatial:97.4% temporal:2.6%
x264 [info]: coded y,uvDC,uvAC intra: 87.2% 78.0% 70.3% inter: 27.8% 29.6% 19.3%
x264 [info]: i16 v,h,dc,p: 39% 9% 10% 42%
x264 [info]: i8 v,h,dc,ddl,ddr,vr,hd,vl,hu: 17% 11% 7% 8% 11% 11% 12% 11% 13%
x264 [info]: i4 v,h,dc,ddl,ddr,vr,hd,vl,hu: 32% 7% 5% 7% 11% 10% 10% 9% 10%
x264 [info]: i8c dc,h,v,p: 52% 17% 17% 14%
x264 [info]: Weighted P-Frames: Y:4.7% UV:2.9%
x264 [info]: ref P L0: 50.9% 11.2% 16.0% 5.7% 4.7% 3.1% 2.8% 1.5% 1.5% 1.2% 1.3% 0.2% 0.0%
x264 [info]: ref B L0: 74.9% 11.6% 4.9% 2.7% 1.8% 1.5% 1.1% 0.8% 0.5% 0.3%
x264 [info]: ref B L1: 93.4% 6.6%
x264 [info]: SSIM Mean Y:0.9884414 (19.371db)
x264 [info]: PSNR Mean Y:46.815 U:57.347 V:56.457 Avg:47.642 Global:46.600 kb/s:3888.84
x264 [total]: encoded 187732 frames, 6.83 fps, 3888.84 kb/s

MediaInfo

General
Unique ID : 200034123089147403089674034059156273710 (0x967D2BB6A4A4AF788723A65B592A3A2E)
Complete name : D:\Oz the Great and Powerful.2013.BDrip-AVC.Froloff777.mkv
Format : Matroska
Format version : Version 4 / Version 2
File size : 4.36 GiB
Duration : 2h 10mn
Overall bit rate : 4 787 Kbps
Encoded date : UTC 2013-06-03 15:42:05
Writing application : mkvmerge v6.1.0 ('Old Devil') built on Mar 4 2013 09:10:42
Writing library : libebml v1.3.0 + libmatroska v1.4.0
Video
ID : 1
Format : AVC
Format/Info : Advanced Video Codec
Format profile : High@L4.1
Format settings, CABAC : Yes
Format settings, ReFrames : 11 frames
Codec ID : V_MPEG4/ISO/AVC
Duration : 2h 10mn
Bit rate : 3 889 Kbps
Width : 1 200 pixels
Height : 500 pixels
Display aspect ratio : 2.40:1
Frame rate mode : Constant
Frame rate : 23.976 fps
Color space : YUV
Chroma subsampling : 4:2:0
Bit depth : 8 bits
Scan type : Progressive
Bits/(Pixel*Frame) : 0.270
Stream size : 3.46 GiB (79%)
Title : Oz the Great and Powerful
Writing library : x264 core 130 r2273 b3065e6
Encoding settings : cabac=1 / ref=11 / deblock=1:-3:-2 / analyse=0x3:0x133 / me=umh / subme=10 / psy=1 / psy_rd=1.00:0.05 / mixed_ref=1 / me_range=32 / chroma_me=1 / trellis=2 / 8x8dct=1 / cqm=0 / deadzone=21,11 / fast_pskip=0 / chroma_qp_offset=-3 / threads=6 / lookahead_threads=1 / sliced_threads=0 / nr=0 / decimate=0 / interlaced=0 / bluray_compat=0 / constrained_intra=0 / bframes=16 / b_pyramid=2 / b_adapt=2 / b_bias=0 / direct=3 / weightb=1 / open_gop=0 / weightp=2 / keyint=240 / keyint_min=24 / scenecut=40 / intra_refresh=0 / rc_lookahead=60 / rc=2pass / mbtree=0 / bitrate=3889 / ratetol=1.0 / qcomp=0.60 / qpmin=0 / qpmax=69 / qpstep=4 / cplxblur=20.0 / qblur=0.5 / vbv_maxrate=50000 / vbv_bufsize=62500 / nal_hrd=none / ip_ratio=1.40 / pb_ratio=1.30 / aq=2:0.70
Language : English
Default : Yes
Forced : No
Audio #1
ID : 2
Format : AC-3
Format/Info : Audio Coding 3
Mode extension : CM (complete main)
Format settings, Endianness : Big
Codec ID : A_AC3
Duration : 2h 10mn
Bit rate mode : Constant
Bit rate : 448 Kbps
Channel(s) : 6 channels
Channel positions : Front: L C R, Side: L R, LFE
Sampling rate : 48.0 KHz
Bit depth : 16 bits
Compression mode : Lossy
Stream size : 418 MiB (9%)
Title : Дублированный
Language : Russian
Default : Yes
Forced : No
Audio #2
ID : 3
Format : AC-3
Format/Info : Audio Coding 3
Mode extension : CM (complete main)
Format settings, Endianness : Big
Codec ID : A_AC3
Duration : 2h 10mn
Bit rate mode : Constant
Bit rate : 448 Kbps
Channel(s) : 6 channels
Channel positions : Front: L C R, Side: L R, LFE
Sampling rate : 48.0 KHz
Bit depth : 16 bits
Compression mode : Lossy
Stream size : 418 MiB (9%)
Language : English
Default : No
Forced : No
Text #1
ID : 4
Format : UTF-8
Codec ID : S_TEXT/UTF8
Codec ID/Info : UTF-8 Plain Text
Title : Воронин
Language : Russian
Default : No
Forced : No
Text #2
ID : 5
Format : UTF-8
Codec ID : S_TEXT/UTF8
Codec ID/Info : UTF-8 Plain Text
Language : English
Default : No
Forced : No
Menu
00:00:00.000 : en:Opening Titles
00:02:37.699 : en:Kansas, 1905
00:06:16.959 : en:The Show
00:09:57.555 : en:Make Me Walk
00:11:32.691 : en:A Great Man
00:15:20.753 : en:The Escape
00:17:47.191 : en:The Tornado
00:20:29.478 : en:Where Am I?
00:24:01.982 : en:Theodora the Good Witch
00:24:49.779 : en:Diver Fairies
00:27:01.661 : en:The Wicked Witches' Minions
00:29:37.358 : en:May I have This Dance?
00:32:43.419 : en:The Lion
00:34:30.193 : en:Finley the Loyal Servant
00:37:22.657 : en:Sourpuss
00:38:57.376 : en:Evanora, The Royal Advisor
00:40:39.145 : en:I'm Not Wicked!
00:42:09.944 : en:Show Me Now
00:42:52.444 : en:The Royal Treasure of Oz
00:45:33.480 : en:No Turning Back
00:47:22.839 : en:China Town
00:48:32.409 : en:China Girl
00:53:29.831 : en:Crossroads
00:55:22.652 : en:The Dark Forest
00:57:15.932 : en:The Plan
00:59:10.838 : en:Glinda the Good
01:02:05.263 : en:Broken Heart
01:05:33.220 : en:The Prophecy
01:06:21.102 : en:She Knows
01:09:55.774 : en:Bubble Voyage
01:12:20.836 : en:Wizard Enough
01:15:37.783 : en:One Bite
01:18:20.320 : en:The Good People of Oz
01:19:47.782 : en:The Munchkin Song
01:21:27.882 : en:Theodora The Wicked
01:26:16.170 : en:Leaving
01:28:08.783 : en:Tuck Me In
01:30:33.219 : en:Battle Plan
01:34:24.116 : en:Few But Mighty
01:36:57.436 : en:The Guard Gate
01:37:35.975 : en:The Battle Begins
01:41:30.876 : en:Stick With the Plan
01:42:30.394 : en:Glinda In Chains
01:45:51.762 : en:Give Up, Glinda
01:48:33.423 : en:No One Defies Oz!
01:51:23.802 : en:Unleash the Stars
01:54:26.317 : en:Witch Fight
01:55:54.072 : en:What Have You Done?
01:57:58.404 : en:Forever Free
01:59:34.417 : en:Gifts
02:02:49.570 : en:What Do You See?
02:04:32.756 : en:Credits

Скриншоты

[Цитировать]

Топик был перенесен из форума Новинки кинопроката в форум Фантастика
Henkok



Показать сообщения:    

Текущее время: 07-Дек 13:43

Часовой пояс: UTC + 3


Вы не можете начинать темы
Вы не можете отвечать на сообщения
Вы не можете редактировать свои сообщения
Вы не можете удалять свои сообщения
Вы не можете голосовать в опросах
Вы не можете прикреплять файлы к сообщениям
Вы не можете скачивать файлы

!ВНИМАНИЕ!
Сайт не предоставляет электронные версии произведений, а занимается лишь коллекционированием и каталогизацией ссылок, присылаемых и публикуемых на форуме нашими читателями. Если вы являетесь правообладателем какого-либо представленного материала и не желаете, чтобы ссылка на него находилась в нашем каталоге, свяжитесь с нами, и мы незамедлительно удалим ее. Файлы для обмена на трекере предоставлены пользователями сайта, и администрация не несет ответственности за их содержание. Просьба не заливать файлы, защищенные авторскими правами, а также файлы нелегального содержания!