[ Сегодня идет свободное скачивание без начисления Download ]


Статистика раздачи
Нет
 
   
 
Top  
 
 



Страна: Россия
Жанр: спорт, драма, биография
Год выпуска: 2013
Продолжительность: 02:13:54
Перевод:
Не требуется (оригинал) [лицензия]

Субтитры: -
Оригинальная дорожка: -
Главы: есть
Режиссер: Николай Лебедев
В ролях: Данила Козловский, Олег Меньшиков, Светлана Иванова, Владимир Меньшов, Александр Лобанов, Сергей Генкин, Роман Мадянов, Александр Яковлев, Алехандра Грепи, Борис Щербаков...-Описание: 2 сентября 1972 года. Монреаль. Хоккейная сборная СССР с разгромным счетом 7:3 победила канадских профессионалов из НХЛ в стартовом матче эпохальной Суперсерии СССР-Канада. Это была не просто игра, это была битва за свою страну, которая перевернула мировое представление о хоккее.
Теперь весь мир знал его просто по номеру «17». Валерий Харламов, забивший в том матче 2 шайбы, мгновенно взлетел на вершину славы. Сбылась его мечта - упорство, спортивный талант и суровые уроки великого тренера Анатолия Тарасова сделали из «номера 17» легенду мирового хоккея.-Раздача от: | Рип L-Доп. информация:
Сэмпл-Качество видео: BDRip-AVC
Формат видео: MKV
Видео: AVC / High@L4.1 / 960 x 402 / 2 660 Kbps / 2.40:1
Аудио: 48 kHz, AC3 Dolby Digital, 3/2 (L,C,R,l,r) + LFE ch, ~448 kbps
Формат субтитров: softsub (SRT)

Скриншоты



Знаете ли вы, что...

• Во время работы над некоторыми сценами использовалось от четырех до десяти камер, в том числе камера Phantom, способная замедлять изображение в десятки раз, а также миниатюрные GoPro камеры, которые устанавливались на клюшки, шайбы и амуницию игроков.
• Съемки фильма начались в середине июня и длились до конца сентября 2011 года, а в феврале 2012 года были досняты зимние сцены. Снимали в Москве, Электростали, Минске, Новополоцке, Бобруйске и в испанском Питильясе под Памплоной.
• Данила Козловский тренировался играть в хоккей в течение четырех месяцев до начала съемок.
• Постановкой хоккейных сцен занимался канадец Джоди Стечик, который работал на многих картинах, в том числе на «2012» и «Начало».
• Ранние годы героя снимались на 16-миллиметровую пленку, годы расцвета — на 35-миллиметровую, а матч в Канаде — на цифровые камеры.
• Близкие Валерия Харламова исполнили небольшие роли в фильме: сын Александр (сам — профессиональный хоккеист) сыграл хоккеиста «Звезды», а у сестры Татьяны Борисовны камео вахтерши в «Лужниках».
• Режиссер фильма Николай Лебедев появляется в кадре во время пресс-конференции советской сборной в Канаде.
• На 76 минуте, когда Ирина подходит к Харламову в больнице, у неё в пакете видно 3 апельсина, а уже в следующем кадре виден только один апельсин.

Исходник

LEGENDA_17_BD_BLUEBIRD

MediaInfo

Общее
Уникальный идентификатор : 195069263510235029783243297904979915173 (0x92C0F93CB2182E72B6959311BEE8B1A5)
Полное имя : D:25KadrLegenda.N17.Bluray.avc.ac3.RG.25.Kadr[by.L].mkv
Формат : Matroska
Версия формата : Version 2
Размер файла : 2,91 Гбайт
Продолжительность : 2 ч. 13 м.
Общий поток : 3110 Кбит/сек
Название фильма : Легенда №17 [2013 г.] | Рип L [R.G. 25 Кадр] | Unionpeer.org | Tapochek.net
Дата кодирования : UTC 2013-05-25 09:59:07
Программа кодирования : mkvmerge v3.2.0 (''Beginnings'') built on Feb 12 2010 16:46:17
Библиотека кодирования : libebml v0.7.9 + libmatroska v0.8.1
Видео
Идентификатор : 1
Формат : AVC
Формат/Информация : Advanced Video Codec
Профиль формата : High@L4.1
Параметр CABAC формата : Да
Параметр ReFrames формата : 12 кадров
Идентификатор кодека : V_MPEG4/ISO/AVC
Продолжительность : 2 ч. 13 м.
Битрейт : 2660 Кбит/сек
Ширина : 960 пикселей
Высота : 402 пикселя
Соотношение сторон : 2,40:1
Режим частоты кадров : Постоянный
Частота кадров : 24,000 кадра/сек
Цветовое пространство : YUV
Субдискретизация насыщенности : 4:2:0
Битовая глубина : 8 бит
Тип развёртки : Прогрессивная
Бит/(Пиксели*Кадры) : 0.287
Размер потока : 2,43 Гбайт (84%)
Библиотека кодирования : x264 core 130 r2273 b3065e6
Настройки программы : cabac=1 / ref=12 / deblock=1:-2:-1 / analyse=0x3:0x133 / me=umh / subme=10 / psy=1 / psy_rd=0.95:0.05 / mixed_ref=1 / me_range=32 / chroma_me=1 / trellis=2 / 8x8dct=1 / cqm=0 / deadzone=21,11 / fast_pskip=0 / chroma_qp_offset=-4 / threads=6 / lookahead_threads=1 / sliced_threads=0 / nr=0 / decimate=1 / interlaced=0 / bluray_compat=0 / constrained_intra=0 / bframes=12 / b_pyramid=2 / b_adapt=2 / b_bias=0 / direct=3 / weightb=1 / open_gop=0 / weightp=2 / keyint=230 / keyint_min=21 / scenecut=40 / intra_refresh=0 / rc_lookahead=0 / rc=2pass / mbtree=0 / bitrate=2660 / ratetol=1.0 / qcomp=0.70 / qpmin=0 / qpmax=69 / qpstep=4 / cplxblur=20.0 / qblur=0.5 / vbv_maxrate=50000 / vbv_bufsize=62500 / nal_hrd=none / ip_ratio=1.35 / pb_ratio=1.25 / aq=2:0.90
Язык : English
Default : Нет
Forced : Нет
Аудио
Идентификатор : 2
Формат : AC-3
Формат/Информация : Audio Coding 3
Расширение режима : CM (complete main)
Параметр Endianness формата : Big
Идентификатор кодека : A_AC3
Продолжительность : 2 ч. 13 м.
Вид битрейта : Постоянный
Битрейт : 448 Кбит/сек
Каналы : 6 каналов
Расположение каналов : Front: L C R, Side: L R, LFE
Частота : 48,0 КГц
Битовая глубина : 16 бит
Метод сжатия : С потерями
Размер потока : 429 Мбайт (14%)
Язык : Russian
Default : Да
Forced : Нет
Меню
00:00:00.000 : en:00:00:00.000
00:07:01.708 : en:00:07:01.708
00:14:53.083 : en:00:14:53.083
00:22:34.208 : en:00:22:34.208
00:28:59.500 : en:00:28:59.500
00:37:15.500 : en:00:37:15.500
00:45:29.625 : en:00:45:29.625
00:57:35.292 : en:00:57:35.292
01:08:11.792 : en:01:08:11.792
01:17:34.208 : en:01:17:34.208
01:26:25.542 : en:01:26:25.542
01:34:09.208 : en:01:34:09.208
01:43:26.458 : en:01:43:26.458
01:49:54.083 : en:01:49:54.083
01:58:50.792 : en:01:58:50.792
02:07:19.292 : en:02:07:19.292

Log_x264

-[NoImage] x264 [info]: frame I:1485 Avg QP:18.49 size: 62119 PSNR Mean Y:44.79 U:48.80 V:49.16 Avg:45.78 Global:45.19
-[NoImage] x264 [info]: frame P:48119 Avg QP:21.02 size: 23266 PSNR Mean Y:43.55 U:47.65 V:47.98 Avg:44.54 Global:43.79
-[NoImage] x264 [info]: frame B:143206 Avg QP:22.91 size: 10189 PSNR Mean Y:42.36 U:46.77 V:47.29 Avg:43.40 Global:42.64
-[NoImage] x264 [info]: consecutive B-frames: 3.3% 4.4% 12.1% 33.0% 16.4% 20.1% 3.7% 2.8% 2.3% 1.0% 0.4% 0.2% 0.3%

[Цитировать]

Топик был перенесен из форума Новинки кинопроката в форум Драма
Henkok



Показать сообщения:    

Текущее время: 09-Дек 05:02

Часовой пояс: UTC + 3


Вы не можете начинать темы
Вы не можете отвечать на сообщения
Вы не можете редактировать свои сообщения
Вы не можете удалять свои сообщения
Вы не можете голосовать в опросах
Вы не можете прикреплять файлы к сообщениям
Вы не можете скачивать файлы

!ВНИМАНИЕ!
Сайт не предоставляет электронные версии произведений, а занимается лишь коллекционированием и каталогизацией ссылок, присылаемых и публикуемых на форуме нашими читателями. Если вы являетесь правообладателем какого-либо представленного материала и не желаете, чтобы ссылка на него находилась в нашем каталоге, свяжитесь с нами, и мы незамедлительно удалим ее. Файлы для обмена на трекере предоставлены пользователями сайта, и администрация не несет ответственности за их содержание. Просьба не заливать файлы, защищенные авторскими правами, а также файлы нелегального содержания!