[ Сегодня идет свободное скачивание без начисления Download ]


Статистика раздачи
Нет
 
   
 
Top  
 
 
-Побочный эффект / Side Effects (2013) BDRip-«Одна доза изменит твою жизнь»- Год выпуска: 2013
Страна: США
Производство: Di Bonaventura Pictures, Endgame Entertainment
Жанр: Триллер, Драма, Криминал
Режиссер: Стивен Содерберг
Продюсер: Скотт Барнс, Лоренцо ди Бонавентура, Грегори Джейкобс, Дуглас Хэнсен (иcп.), Джеймс Д. Стерн (иcп.)
Актеры: Руни Мара, Ченнинг Татум, Джуд Лоу, Кэтрин Зета-Джонс, Винесса Шоу, Мэми Гаммер, Дэвид Костабайл, Лейла Робинс, Полли Дрэйпер, Керри О'Мэлли, Эшли Аткинсон, Андреа Богарт
Перевод: Дублированный
Субтитры: Вшитые отключаемые
Язык субтитров: Русские (full A.Kuznetsova), Английские (full SDH)
Описание фильма: У Эмили начались психологические проблемы, когда ее мужа посадили в тюрьму. Спустя 4 года он выходит, а Эмили впадает в депрессию и, вроде бы, пытается покончить с собой. Психотерапевт назначает ей лекарства, но сама Эмили хочет принимать новый препарат, который ей советует коллега по работе.

Продолжительность: 01:46:22
Качество видео: BDRip 1080p
Видеокодек: MPEG-4 AVC/H.264
Битрейт видео: ~13700 kbps
Размер кадра: 1920x1040
Аудио#1: Русский, AC3 5.1, 448 kbps [Дублированный [R5]]
Аудио#2: Украинский, AC3 5.1, 448 kbps [Многоголосый закадровый, профессиональный [студия "Омикрон"]]
Аудио#3: Английский, DTS 5.1, 1509 kbps [Оригинал]

MediaInfo

Общее
Уникальный идентификатор                 : 218643645599221437571834702586505999373 (0xA47D3C0302F71518841E1FA7F1F6340D)
Полное имя                               : I:\BDRip 1080\Side.Effects.2013.1080p.BDRip.mkv
Формат                                   : Matroska
Версия формата                           : Version 4 / Version 2
Размер файла                             : 12,2 Гбайт
Продолжительность                        : 1 ч. 46 м.
Общий поток                              : 16,4 Мбит/сек
Название фильма                          : Side.Effects.2013.1080p.BDRip.NNM-Club.ru
Дата кодирования                         : UTC 2013-06-04 12:30:33
Программа кодирования                    : mkvmerge v6.2.0 ('Promised Land') built on Apr 28 2013 12:22:01
Библиотека кодирования                   : libebml v1.3.0 + libmatroska v1.4.0
Видео
Идентификатор                            : 1
Формат                                   : AVC
Формат/Информация                        : Advanced Video Codec
Профиль формата                          : [url=mailto:[email protected]][email protected][/url]
Параметр CABAC формата                   : Да
Параметр ReFrames формата                : 4 кадра
Идентификатор кодека                     : V_MPEG4/ISO/AVC
Продолжительность                        : 1 ч. 46 м.
Битрейт                                  : 13,7 Мбит/сек
Ширина                                   : 1920 пикселей
Высота                                   : 1040 пикселей
Соотношение сторон                       : 1,85:1
Режим частоты кадров                     : Постоянный
Частота кадров                           : 23,976 кадра/сек
Цветовое пространство                    : YUV
Субдискретизация насыщенности            : 4:2:0
Битовая глубина                          : 8 бит
Тип развёртки                            : Прогрессивная
Бит/(Пиксели*Кадры)                      : 0.286
Размер потока                            : 10,2 Гбайт (83%)
Библиотека кодирования                   : x264 core 130 r2274+704+40 24c804d tMod+MixAQ [[email protected]:2:0 X86_64]
Настройки программы                      : cabac=1 / ref=4 / deblock=1:-3:-3 / analyse=0x3:0x113 / me=umh / subme=11 / psy=1 / fade_compensate=0.00 / psy_rd=1.05:0.00 / mixed_ref=1 / me_range=48 / chroma_me=1 / trellis=2 / 8x8dct=1 / cqm=0 / deadzone=21,11 / fast_pskip=0 / chroma_qp_offset=-2 / threads=36 / lookahead_threads=6 / sliced_threads=0 / nr=0 / decimate=0 / interlaced=0 / bluray_compat=0 / constrained_intra=0 / fgo=0 / bframes=8 / b_pyramid=2 / b_adapt=2 / b_bias=0 / direct=3 / weightb=1 / open_gop=0 / weightp=2 / keyint=240 / keyint_min=24 / scenecut=40 / intra_refresh=0 / rc=crf / mbtree=0 / crf=17.8000 / qcomp=0.72 / qpmin=0 / qpmax=69 / qpstep=4 / ip_ratio=1.25 / pb_ratio=1.20 / aq=4:0.80 / aq-sensitivity=10.00 / aq-ifactor=1.00 / aq-pfactor=1.00 / aq-bfactor=1.00 / aq2=0
Язык                                     : English
Default                                  : Да
Forced                                   : Нет
Аудио #1
Идентификатор                            : 2
Формат                                   : AC-3
Формат/Информация                        : Audio Coding 3
Расширение режима                        : CM (complete main)
Параметр Endianness формата              : Big
Идентификатор кодека                     : A_AC3
Продолжительность                        : 1 ч. 46 м.
Вид битрейта                             : Постоянный
Битрейт                                  : 448 Кбит/сек
Каналы                                   : 6 каналов
Расположение каналов                     : Front: L C R, Side: L R, LFE
Частота                                  : 48,0 КГц
Битовая глубина                          : 16 бит
Метод сжатия                             : С потерями
Размер потока                            : 341 Мбайт (3%)
Заголовок                                : DUB (R5)
Язык                                     : Russian
Default                                  : Да
Forced                                   : Нет
Аудио #2
Идентификатор                            : 3
Формат                                   : AC-3
Формат/Информация                        : Audio Coding 3
Расширение режима                        : CM (complete main)
Параметр Endianness формата              : Big
Идентификатор кодека                     : A_AC3
Продолжительность                        : 1 ч. 46 м.
Вид битрейта                             : Постоянный
Битрейт                                  : 448 Кбит/сек
Каналы                                   : 6 каналов
Расположение каналов                     : Front: L C R, Side: L R, LFE
Частота                                  : 48,0 КГц
Битовая глубина                          : 16 бит
Метод сжатия                             : С потерями
Размер потока                            : 341 Мбайт (3%)
Заголовок                                : MVO Omikron Studio
Язык                                     : Ukrainian
Default                                  : Нет
Forced                                   : Нет
Аудио #3
Идентификатор                            : 4
Формат                                   : DTS
Формат/Информация                        : Digital Theater Systems
Режим                                    : 16
Параметр Endianness формата              : Big
Идентификатор кодека                     : A_DTS
Продолжительность                        : 1 ч. 46 м.
Вид битрейта                             : Постоянный
Битрейт                                  : 1509 Кбит/сек
Каналы                                   : 6 каналов
Расположение каналов                     : Front: L C R, Side: L R, LFE
Частота                                  : 48,0 КГц
Битовая глубина                          : 24 бит
Метод сжатия                             : С потерями
Размер потока                            : 1,12 Гбайт (9%)
Язык                                     : English
Default                                  : Нет
Forced                                   : Нет
Текст #1
Идентификатор                            : 5
Формат                                   : UTF-8
Идентификатор кодека                     : S_TEXT/UTF8
Идентификатор кодека/Информация          : UTF-8 Plain Text
Заголовок                                : Russian subtitles (A.Kuznetsova)
Default                                  : Нет
Forced                                   : Нет
Текст #2
Идентификатор                            : 6
Формат                                   : UTF-8
Идентификатор кодека                     : S_TEXT/UTF8
Идентификатор кодека/Информация          : UTF-8 Plain Text
Язык                                     : English
Default                                  : Нет
Forced                                   : Нет
Меню
00:00:00.000                             : en:00:00:00.000
00:05:24.324                             : en:00:05:24.324
00:07:59.437                             : en:00:07:59.437
00:13:06.452                             : en:00:13:06.452
00:18:22.935                             : en:00:18:22.935
00:23:39.335                             : en:00:23:39.335
00:30:36.960                             : en:00:30:36.960
00:34:43.540                             : en:00:34:43.540
00:37:39.632                             : en:00:37:39.632
00:44:33.921                             : en:00:44:33.921
00:51:34.717                             : en:00:51:34.717
00:58:22.999                             : en:00:58:22.999
01:03:43.153                             : en:01:03:43.153
01:09:26.996                             : en:01:09:26.996
01:15:53.424                             : en:01:15:53.424
01:21:20.292                             : en:01:21:20.292
01:26:27.766                             : en:01:26:27.766
01:34:25.159                             : en:01:34:25.159
01:38:37.745                             : en:01:38:37.745
01:43:27.618                             : en:01:43:27.618

Дополнительная информация:

» На главную роль рассматривались кандидатуры Эмили Блант, Оливии Уайлд, Имоджен Путс, Элис Ив, Аманды Сайфред и Мишель Уильямс. Кастинг прошла Блэйк Лайвли, однако позже она была заменена на Руни Мару.
» Джастин Тимберлэйк рассматривался на роль, которую получил Ченнинг Татум.
» Стивен Содерберг рассматривал кандидатуру Линдси Лохан на роль Эмили и трижды устраивал ей прослушивания. Однако продюсеры посчитали, что ее текущие проблемы с законом могут нарушить производственный процесс.
» Сценарист Скотт Бёрнс, работавший с Содербергом над «Информатором» и «Заражением», вынашивал идею создания фильма больше 10 лет.
» Это последний фильм Стивена Содерберга в качестве режиссера.
» В метро, на постере антидепрессанта «Ablixa», изображена актриса Алекса Браун.
» Стивен Содерберг рассказал, что при создании фильма сильное влияние на него оказала работа Эдриана Лайна в фильме «Роковое влечение» (1987).
» В финальной сцене главная героиня идет в офис, при этом на улице дождь. Но когда она уже в офисе, ее зонт сухой.
» В начале фильма оператор и камера отражаются в окне автомобиля.
» В фильме говорится, что доктор Банкс обучался медицине в Даремском университете, в Великобритании. В этом университете нет кафедры медицины.
» Когда показывают тело Мартина Тайлера (Ченнинг Татум) в мешке для трупа — заметно, что это другой актер.

Рецензия:

Таблетки, таблеточки
Эмили (Руни Мара) наконец-то воссоединилась со своим мужем Мартином (Чаннинг Татум), который отсидел четыре года в тюрьме за какие-то финансовые махинации. Но Эмили постоянно в глубокой депрессии и даже возвращение мужа не радует ее. После попытки самоубийства, лечащий врач Джонатан Бэнкс (Джуд Лоу) выписывает Эмили таблетки, которые приводят к трагедии……
Режиссер Стивен Содерберг любит снимать фильмы в различных жанрах, он может с легкостью снять стопроцентное авторское кино или заводной мейнстрим, а может эти жанры просто смиксовать. Содерберг экспериментатор кинематографических стилей, отчего некоторые фильмы с технической стороны сняты безупречно, но при этом они сухи и бездушны.
«Побочный эффект» фильм обманка (по крайне мере, если изначально не знаешь что смотришь), первая половина картины эта такая серьезная социальная драма о проблемах зависимости людей лекарственными препаратами, об их воздействиях, о сложности влиянии депрессии и как зарабатывают деньги фармацевтические компании, постоянна выпуская новые экспериментальные таблетки. Вся первая половина представляет собой чрезмерно скучную тягомотину, из-за чего желания досмотреть картину убавляется с каждой минутой, но Содерберг в середине делает неожиданный кульбит и из тягучей драмы фильм превращается в интригующий хичкоковский триллер. Все что вначале, было лишь прелюдией к запутанной и неожиданной истории. К концу понимаешь, Содерберг вовсе не собирался снимать жизнеутверждающую драму о фармакологии, он всего лишь снимал психологический триллер с несколькими неожиданными твистами. Как только фильм меняет свой жанр, занудство улетучивается, и ты с большим интересом продолжаешь смотреть продолжение истории и с каждым разом удивляешься до чего Содерберг уникальная личность.
Актер Джуд Лоу как всегда сыграл блестяще. Он отлично показал растерянного доктора, который может потерять все и в тоже время хитрого, дающего отпор сильную личность. Руни Мара доказала, что она действительно актриса и смогла сыграть совсем иную героиню, непохожую на Лисбет Саландер. Тут также есть невыразительный Чаннинг Татум и после долго отсутствия не особо любимая Кэтрин Зета-Джонс, но здесь она приятна удивила.
Итог: Даже притом, что первая половина скучная, в целом же фильм оставляет приятное послевкусие. Так что, вполне можно посмотреть.
Скриншоты: Пожалуйста не уходите с раздачи, дайте скачать другим!!! Время раздачи: с 21:00 до 7:00

[Цитировать]

Топик был перенесен из форума Новинки кинопроката (HD Video) в форум Зарубежное кино (HD Video)
Bootch



Показать сообщения:    

Текущее время: 04-Дек 15:10

Часовой пояс: UTC + 3


Вы не можете начинать темы
Вы не можете отвечать на сообщения
Вы не можете редактировать свои сообщения
Вы не можете удалять свои сообщения
Вы не можете голосовать в опросах
Вы не можете прикреплять файлы к сообщениям
Вы не можете скачивать файлы

!ВНИМАНИЕ!
Сайт не предоставляет электронные версии произведений, а занимается лишь коллекционированием и каталогизацией ссылок, присылаемых и публикуемых на форуме нашими читателями. Если вы являетесь правообладателем какого-либо представленного материала и не желаете, чтобы ссылка на него находилась в нашем каталоге, свяжитесь с нами, и мы незамедлительно удалим ее. Файлы для обмена на трекере предоставлены пользователями сайта, и администрация не несет ответственности за их содержание. Просьба не заливать файлы, защищенные авторскими правами, а также файлы нелегального содержания!