[ Сегодня идет свободное скачивание без начисления Download ]


Статистика раздачи
Нет
 
   
 
Top  
 
 
Гарри и Хендерсоны / Harry and the Hendersons Год выпуска: 1987
Страна: США
Жанр: комедия, семейный
Режиссер: Уильям Диар / William Dear
Перевод1: Профессиональный (многоголосый закадровый) (НТВ+)
Перевод2: Профессиональный (многоголосый закадровый) (ОРТ)
Субтитры: английские
В ролях: Джон Литгоу, Мелинда Диллон, Margaret Langrick, Джошуа Рудой, Кевин Питер Холл, Лэйни Кэзан, Дон Амиче, М. Эммет Уолш, Bill Ontiverous, David Richardt
Описание: Семье Хендерсонов пришлось поверить в существование снежного человека после того, как их машина сбила на лесной дороге огромное мохнатое существо. Глава семейства, Джордж, принимает решение доставить бездыханное тело в научный центр или музей для изучения. В дороге «мохнатик» приходит в себя и поселяется у Хендерсонов под именем Гарри. Он заполняет дом не самым приятным запахом и «наводит порядок». Одним ударом кулака Гарри подгоняет дверной проем под свой рост, затем, погоревав над чучелами убиенных лесных собратьев, срывает эти кощунственные людские игрушки со стен.
Жизнь среднестатистической американской семьи кардинально меняется с появлением Гарри. Спокойствия им не видать, зато каждый день — новое открытие.
Подогнанные без перекодировки русские звуковые дорожки взяты из: http://rutracker.org/forum/viewtopic.php?t=2807219

Качество: HDTVRip 720p
Продолжительность: 01:50:44
Формат: MKV
Видео кодек: H.264
Аудио кодек: AC3
Видео: 1280x694 (16:9), 23,976 fps, 6 234 Kbps, 0.293 bit/pixel
Аудио 1: Русский, АС3 2.0 224 Kbps 48,0 КГц - (MVO)НТВ+
Аудио 2: Русский, AC3 2.0 192 Kbps 48,0 КГц - (MVO)ОРТ
Аудио 3: English, АС3 5.1 384 Kbps 48,0 КГц - (Оригинал)
Субтитры: Soft Sub (SRT)

MediaInfo

D:\HDFILMS\Harry.and.the.Hendersons.1987.720p.HDTVRip.2xRus.Eng.mkv
General
Unique ID : 243708868597686231236045706919006576634 (0xB7589EEB13E76D6F9629424507BA1FFA)
Complete name : D:\HDFILMS\Harry.and.the.Hendersons.1987.720p.HDTVRip.2xRus.Eng.mkv
Format : Matroska
Format version : Version 2
File size : 5.56 GiB
Duration : 1h 50mn
Overall bit rate : 7 177 Kbps
Encoded date : UTC 2012-10-23 19:11:35
Writing application : mkvmerge v5.3.0 ('I could have danced') built on Feb 9 2012 10:38:07
Writing library : libebml v1.2.3 + libmatroska v1.3.0
Video #1
ID : 1
Format : AVC
Format/Info : Advanced Video Codec
Format profile : High@L4.1
Format settings, CABAC : Yes
Format settings, ReFrames : 9 frames
Codec ID : V_MPEG4/ISO/AVC
Duration : 1h 50mn
Bit rate : 6 234 Kbps
Width : 1 280 pixels
Height : 694 pixels
Display aspect ratio : 16:9
Frame rate : 23.976 fps
Color space : YUV
Chroma subsampling : 4:2:0
Bit depth : 8 bits
Scan type : Progressive
Bits/(Pixel*Frame) : 0.293
Stream size : 4.83 GiB (87%)
Title : Harry.and.the.Hendersons.1987.720p.HDTV.DD5.1.x264-Hype
Writing library : x264 core 107 r1745 4785e8e
Encoding settings : cabac=1 / ref=9 / deblock=1:-3:-3 / analyse=0x3:0x133 / me=umh / subme=9 / psy=1 / psy_rd=1.20:0.20 / mixed_ref=1 /
me_range=32 / chroma_me=1 / trellis=2 / 8x8dct=1 / cqm=0 / deadzone=6,6 / fast_pskip=0 / chroma_qp_offset=-3 / threads=2 / sliced_threads=0 / nr=0 /
decimate=0 / interlaced=0 / constrained_intra=0 / bframes=7 / b_pyramid=2 / b_adapt=2 / b_bias=0 / direct=3 / weightb=1 / open_gop=0 / weightp=2 /
keyint=250 / keyint_min=23 / scenecut=40 / intra_refresh=0 / rc_lookahead=60 / rc=crf / mbtree=0 / crf=19.0 / qcomp=0.80 / qpmin=10 / qpmax=51 /
qpstep=4 / vbv_maxrate=50000 / vbv_bufsize=50000 / crf_max=0.0 / ip_ratio=1.10 / pb_ratio=1.10 / aq=1:0.75 / nal_hrd=none
Default : No
Forced : No
Audio #2
ID : 2
Format : AC-3
Format/Info : Audio Coding 3
Mode extension : CM (complete main)
Codec ID : A_AC3
Duration : 1h 50mn
Bit rate mode : Constant
Bit rate : 224 Kbps
Channel(s) : 2 channels
Channel positions : Front: L R
Sampling rate : 48.0 KHz
Bit depth : 16 bits
Compression mode : Lossy
Stream size : 178 MiB (3%)
Title : MVO NTV+ AC3 2.0 224 kbps
Language : Russian
Default : No
Forced : No
Audio #3
ID : 3
Format : AC-3
Format/Info : Audio Coding 3
Mode extension : CM (complete main)
Codec ID : A_AC3
Duration : 1h 50mn
Bit rate mode : Constant
Bit rate : 192 Kbps
Channel(s) : 2 channels
Channel positions : Front: L R
Sampling rate : 48.0 KHz
Bit depth : 16 bits
Compression mode : Lossy
Stream size : 152 MiB (3%)
Title : MVO ORT AC3 2.0 192 kbps
Language : Russian
Default : No
Forced : No
Audio #4
ID : 4
Format : AC-3
Format/Info : Audio Coding 3
Mode extension : CM (complete main)
Codec ID : A_AC3
Duration : 1h 50mn
Bit rate mode : Constant
Bit rate : 384 Kbps
Channel(s) : 6 channels
Channel positions : Front: L C R, Side: L R, LFE
Sampling rate : 48.0 KHz
Bit depth : 16 bits
Compression mode : Lossy
Stream size : 304 MiB (5%)
Title : Original AC3 5.1 384 kbps
Language : English
Default : No
Forced : No
Text #5
ID : 5
Format : UTF-8
Codec ID : S_TEXT/UTF8
Codec ID/Info : UTF-8 Plain Text
Language : English
Default : No
Forced : No
[th]http://torrentsclub.org/pictures/ae64dd97fbe7baaf8c...1b01a85.png[/th] [th]http://torrentsclub.org/pictures/21feeaa05acf6cde44...690ab52.png[/th] [th]http://torrentsclub.org/pictures/90a59081b0b88ebdf1...64ff096.png[/th]

[Цитировать]



Показать сообщения:    

Текущее время: 10-Дек 21:32

Часовой пояс: UTC + 3


Вы не можете начинать темы
Вы не можете отвечать на сообщения
Вы не можете редактировать свои сообщения
Вы не можете удалять свои сообщения
Вы не можете голосовать в опросах
Вы не можете прикреплять файлы к сообщениям
Вы не можете скачивать файлы

!ВНИМАНИЕ!
Сайт не предоставляет электронные версии произведений, а занимается лишь коллекционированием и каталогизацией ссылок, присылаемых и публикуемых на форуме нашими читателями. Если вы являетесь правообладателем какого-либо представленного материала и не желаете, чтобы ссылка на него находилась в нашем каталоге, свяжитесь с нами, и мы незамедлительно удалим ее. Файлы для обмена на трекере предоставлены пользователями сайта, и администрация не несет ответственности за их содержание. Просьба не заливать файлы, защищенные авторскими правами, а также файлы нелегального содержания!