[ Сегодня идет свободное скачивание без начисления Download ]


Статистика раздачи
Нет
 
   
 
Top  
 
 
-Тревожный вызов / The Call (2013) DVDRip-«Из 188 миллионов звонков, этот предназначался персонально ей»- Год выпуска: 2013
Производство: США
Жанр: Триллер
Производство: Amasia Entertainment
Режиссер: Брэд Андерсон / Brad Anderson
Актеры: Холли Берри, Эбигейл Бреслин, Моррис Честнат, Майкл Эклунд, Майкл Империоли, Жустина Мачадо, Хосе Суньига, Рома Маффиа, Эви Томпсон
Перевод: Дублированный
Субтитры: Отсутствуют
Описание фильма: Фильм расскажет про оператора колл-центра 911, куда поступает звонок от девочки-подростка, ставшей жертвой маньяка. Героине предстоит столкнуться со своими кошмарами, чтобы спасти девушку. Дата мировой премьеры: 15 марта 2013
Дата российской премьеры: 14 марта 2013
Дата выхода DVD релиза: Май 2013, «Новый Диск», «New Dream media»
Продолжительность: 01:30:06
Качество видео: DVDRip
Видеокодек: Xvid
Битрейт видео: ~1018 kbps
Размер кадра: 624x336
Аудиокодек: MP3, 2.0
Битрейт аудио: 128 kbps

MediaInfo

Общее
Полное имя : D:\Торренты на раздачу\Тревожный вызов\The_Call.avi
Формат : AVI
Формат/Информация : Audio Video Interleave
Размер файла : 745 Мбайт
Продолжительность : 1 ч. 30 м.
Общий поток : 1155 Кбит/сек
Программа кодирования : VirtualDubMod 1.5.10.3 | (build 2550/release)
Библиотека кодирования : VirtualDubMod build 2550/release
Видео
Идентификатор : 0
Формат : MPEG-4 Visual
Профиль формата : Advanced Simple@L5
Параметр BVOP формата : 1
Параметр QPel формата : Нет
Параметр GMC формата : Без точки перехода
Параметр матрицы формата : Выборочная
Идентификатор кодека : XVID
Идентификатор кодека/Подсказка : XviD
Продолжительность : 1 ч. 30 м.
Битрейт : 1018 Кбит/сек
Ширина : 624 пикселя
Высота : 336 пикселей
Соотношение сторон : 1,85:1
Частота кадров : 25,000 кадров/сек
Цветовое пространство : YUV
Субдискретизация насыщенности : 4:2:0
Битовая глубина : 8 бит
Тип развёртки : Прогрессивная
Метод сжатия : С потерями
Бит/(Пиксели*Кадры) : 0.194
Размер потока : 656 Мбайт (88%)
Библиотека кодирования : XviD 73
Аудио
Идентификатор : 1
Формат : MPEG Audio
Версия формата : Version 1
Профиль формата : Layer 3
Идентификатор кодека : 55
Идентификатор кодека/Подсказка : MP3
Продолжительность : 1 ч. 30 м.
Вид битрейта : Постоянный
Битрейт : 128 Кбит/сек
Каналы : 2 канала
Частота : 48,0 КГц
Метод сжатия : С потерями
Размер потока : 82,5 Мбайт (11%)
Выравнивание : Соединение по промежуткам
Продолжительность промежутка : 40 мс. (1,00 видеокадр)
Время предзагрузки промежутка : 504 мс.
Библиотека кодирования : LAME3.99r
Настройки программы : -m s -V 4 -q 2 -lowpass 17 -b 128
Скриншоты:
Время раздачи: С 14:00 до 03:00 (10 - 15 скачавших)

[Цитировать]



Показать сообщения:    

Текущее время: 09-Дек 20:26

Часовой пояс: UTC + 3


Вы не можете начинать темы
Вы не можете отвечать на сообщения
Вы не можете редактировать свои сообщения
Вы не можете удалять свои сообщения
Вы не можете голосовать в опросах
Вы не можете прикреплять файлы к сообщениям
Вы не можете скачивать файлы

!ВНИМАНИЕ!
Сайт не предоставляет электронные версии произведений, а занимается лишь коллекционированием и каталогизацией ссылок, присылаемых и публикуемых на форуме нашими читателями. Если вы являетесь правообладателем какого-либо представленного материала и не желаете, чтобы ссылка на него находилась в нашем каталоге, свяжитесь с нами, и мы незамедлительно удалим ее. Файлы для обмена на трекере предоставлены пользователями сайта, и администрация не несет ответственности за их содержание. Просьба не заливать файлы, защищенные авторскими правами, а также файлы нелегального содержания!