[ Сегодня идет свободное скачивание без начисления Download ]


Статистика раздачи
Нет
 
   
 
Top  
 
 
[Расширенная версия / Extended Cut] Проект X: Дорвались / Project X «Вечеринка, о которой ты даже не мечтал»
Страна: США
Студия: Silver Pictures
Жанр: комедия
Год выпуска: 2012
Продолжительность: 01:32:58
Перевод: Одноголосый закадровый - А.Дасевич по переводу Дмитрия «Goblin'a» Пучкова
Cубтитры: Rus, Eng
Оригинальная аудиодорожка: английский
Режиссер: Нима Нуризаде / Nima Nourizadeh
В ролях: Томас Манн, Оливер Купер, Джонатан Даниэль Браун, Дакс Флэйм, Кирби Блисс Блэнтон, Брэйди Эндер, Ник Нервис, Алексис Кнапп, Майлз Теллер, Питер Маккензи, Кэйтлин Дюлэйни, Роб Эворс
Описание: Сюжет вращается вокруг троих одноклассников,решивших устроить крутую вечеринку и прославиться на всю округу — правда, удержать события под контролем у них не получилось


Тип релиза: BDRip 720p
Контейнер: MKV
Видео: 1280x720 at 23.976 fps, x264, crf, ~7750 kbps avg
Аудио: Russian: 48 kHz, DTS, 3/2 (L,C,R,l,r) + LFE ch, ~1536.00 kbps avg А.Дасевич
Аудио 2: English: 48 kHz, DTS, 3/2 (L,C,R,l,r) + LFE ch, ~1536.00 kbps avg Original Eng
Релиз от: - by Pro_Rock_

MI

General
Unique ID                        : 177168059290373125890639648624894693712 (0x854953BA0C81F7C68D36EC11D6B25150)
Complete name                    : D:\ноут\Proekt.X.Dorvalis.2012.BDRip.720p.mkv
Format                           : Matroska
File size                        : 7.00 GiB
Duration                         : 1h 32mn
Overall bit rate                 : 10.8 Mbps
Movie name                       : Project X Extended Cut (2012) – Release for HDCLUB by Pro_Rock_
Encoded date                     : UTC 2012-06-09 19:49:51
Writing application              : mkvmerge v5.6.0 ('Kenya Kane') built on May 27 2012 16:44:04
Writing library                  : libebml v1.2.3 + libmatroska v1.3.0
Video
ID                               : 1
Format                           : AVC
Format/Info                      : Advanced Video Codec
Format profile                   : High@L4.1
Format settings, CABAC           : Yes
Format settings, ReFrames        : 9 frames
Format settings, GOP             : M=12, N=48
Codec ID                         : V_MPEG4/ISO/AVC
Duration                         : 1h 32mn
Bit rate                         : 7 541 Kbps
Width                            : 1 280 pixels
Height                           : 720 pixels
Display aspect ratio             : 16:9
Frame rate                       : 23.976 fps
Color space                      : YUV
Chroma subsampling               : 4:2:0
Bit depth                        : 8 bits
Scan type                        : Progressive
Bits/(Pixel*Frame)               : 0.341
Stream size                      : 4.90 GiB (70%)
Title                            : Release for HDCLUB
Writing library                  : x264 core 125 r2200 999b753
Encoding settings                : cabac=1 / ref=9 / deblock=1:-3:-3 / analyse=0x3:0x133 / me=umh / subme=11 / psy=1 / psy_rd=0.85:0.00 / mixed_ref=1 / me_range=96 / chroma_me=1 / trellis=2 / 8x8dct=1 / cqm=0 / deadzone=21,11 / fast_pskip=0 / chroma_qp_offset=-2 / threads=18 / lookahead_threads=3 / sliced_threads=0 / nr=0 / decimate=0 / interlaced=0 / bluray_compat=0 / constrained_intra=0 / bframes=11 / b_pyramid=2 / b_adapt=2 / b_bias=0 / direct=3 / weightb=1 / open_gop=0 / weightp=2 / keyint=250 / keyint_min=23 / scenecut=40 / intra_refresh=0 / rc=crf / mbtree=0 / crf=17.5 / qcomp=0.75 / qpmin=0 / qpmax=69 / qpstep=4 / ip_ratio=1.40 / pb_ratio=1.20 / aq=2:0.65
Language                         : English
Audio #1
ID                               : 2
Format                           : DTS
Format/Info                      : Digital Theater Systems
Codec ID                         : A_DTS
Duration                         : 1h 32mn
Bit rate mode                    : Constant
Bit rate                         : 1 510 Kbps
Channel(s)                       : 6 channels
Channel positions                : Front: L C R, Side: L R, LFE
Sampling rate                    : 48.0 KHz
Bit depth                        : 24 bits
Compression mode                 : Lossy
Stream size                      : 1 004 MiB (14%)
Title                            : DTS 5.1 @ 1536 kbps – А.Дасевич (по тексту Гоблина)
Language                         : Russian
Audio #2
ID                               : 3
Format                           : DTS
Format/Info                      : Digital Theater Systems
Codec ID                         : A_DTS
Duration                         : 1h 32mn
Bit rate mode                    : Constant
Bit rate                         : 1 510 Kbps
Channel(s)                       : 6 channels
Channel positions                : Front: L C R, Side: L R, LFE
Sampling rate                    : 48.0 KHz
Bit depth                        : 24 bits
Compression mode                 : Lossy
Stream size                      : 1 004 MiB (14%)
Title                            : DTS 5.1 @ 1536 kbps
Language                         : English
Text #1
ID                               : 4
Format                           : UTF-8
Codec ID                         : S_TEXT/UTF8
Codec ID/Info                    : UTF-8 Plain Text
Title                            : Forced
Language                         : Russian
Text #2
ID                               : 5
Format                           : UTF-8
Codec ID                         : S_TEXT/UTF8
Codec ID/Info                    : UTF-8 Plain Text
Title                            : Full SDH
Language                         : English
Menu
00:00:00.000                     : :00:00:00.000
00:10:34.425                     : :00:10:34.425
00:19:53.776                     : :00:19:53.776
00:30:46.178                     : :00:30:46.178
00:41:00.958                     : :00:41:00.958
00:53:38.966                     : :00:53:38.966
01:05:10.865                     : :01:05:10.865
01:16:24.872                     : :01:16:24.872
01:24:32.317                     : :01:24:32.317

[Цитировать]



Показать сообщения:    

Текущее время: 11-Дек 11:08

Часовой пояс: UTC + 3


Вы не можете начинать темы
Вы не можете отвечать на сообщения
Вы не можете редактировать свои сообщения
Вы не можете удалять свои сообщения
Вы не можете голосовать в опросах
Вы не можете прикреплять файлы к сообщениям
Вы не можете скачивать файлы

!ВНИМАНИЕ!
Сайт не предоставляет электронные версии произведений, а занимается лишь коллекционированием и каталогизацией ссылок, присылаемых и публикуемых на форуме нашими читателями. Если вы являетесь правообладателем какого-либо представленного материала и не желаете, чтобы ссылка на него находилась в нашем каталоге, свяжитесь с нами, и мы незамедлительно удалим ее. Файлы для обмена на трекере предоставлены пользователями сайта, и администрация не несет ответственности за их содержание. Просьба не заливать файлы, защищенные авторскими правами, а также файлы нелегального содержания!