[ Сегодня идет свободное скачивание без начисления Download ]


Статистика раздачи
Нет
 
   
 
Top  
 
 
-21 и больше / 21 & Over (2013) BDRip- Русское название: 21 и больше
Оригинальное название: 21 & Over
Год выпуска: 2013
Производство: США - Mandeville Films, Relativity Media, SkyLand Entertainment, Virgin Produced
Жанр: Комедия
Перевод: Дублированный |лицензия|
Субтитры: Вшитые отключаемые
Язык субтитров: Английский
Режиссер: Джон Лукас, Скотт Мур / Jon Lucas, Scott Moore
Продюсер: Дэвид Хоберман, Райан Кэвэна, Тодд Либерман
Актеры: Скайлар Эстин, Сара Райт, Майлз Теллер, Джонатан Кельтц, Джастин Чон, Сара Райт, Джонатан Кельтц, Франсуа Чау, Расселл Ходжкинсон, Дэниэл Буко, Расселл Меркадо, Джози Лор
Описание фильма:
Двое друзей подбивают третьего отметить его 21-ый день рождения прямо накануне важного экзамена в медицинский колледж. Никто не замечает, как одна кружка пива превращается в море выпивки, а вечеринка — в бурное и незабываемое приключение с музыкой и девчонками. И где же они окажутся утром?

Дата мировой премьеры: 28 февраля 2013
Дата российской премьеры: 7 марта 2013, «Парадиз»
Дата выхода DVD релиза: 30 апреля 2013, «Парадиз / Активижен»
Продолжительность: 01:33:06
Качество видео: BDRip 1080p
Видеокодек: MPEG-4 AVC/H.264
Видео: H.264, 11.0 Мбит/с, 1920x800, 23,976 кадра/сек
Аудио #1: Русский: DTS, 1536 кбит/c, 5.1, 48 kHz, 16 bit - дублированный
Аудио #2: Русский: AC3, 640 кбит/c, 5.1, 48 kHz, 16 bit - дублированный
Аудио #3: Английский: DTS, 1536 кбит/c, 5.1, 48 kHz, 24 bit

Рецензия, отзыв о фильме:

«Двадцать один! У меня очко, сволочь!» (с)
- Джеф Чен всю жизнь мечтал стать врачом.
- Ну надо было ему думать об этом до того как идти бухать. (с)

Со времен «Евротура» и «Дорожного приключения» я давненько не встречал хорошей молодежной комедии. «Мальчишник в Вегасе» — да, смешной, но его с натяжкой можно назвать молодежным, так как фильм про взрослых женатых дядек. Увидев трейлер «21 и больше», я подумал — вот оно, вот тот фильм, который заставит меня кататься в истериках скрючившись на полу. И я не ошибся!
Сюжет. Двое старых друзей Миллер и Кейси решили сделать сюрприз своему другу Джефу Чену на его 21-ый день рождения и без предупреждения нагрянули к нему в гости. У Чена рано утром важное собеседование, и он как бы не был настроен отмечать, но разве откажешь двум лучшим друзьям. Перебегая из бара в бар, они напиваются так, что Джефа Чена вырубает, а Миллер и Кейси, заблудившись и не зная адреса Чена, пытаются доставить его домой. Ведь ровно в 7 утра за ним заедет его строгий отец, который терпеть не может его друзей.
«21 и больше» — это очень убойная комедия от создателей «Мальчишника в Вегасе» и нескольких других не менее классных комедий. Этот фильм не о сексе, выпивке и вечеринках, как может показаться на первый взгляд, а о настоящей мужской дружбе. Двое друзей весь фильм преодолевают препятствие за препятствием и в конце концов все же достигают цели, и все ради того, чтобы не подставить и спасти своего третьего друга, которого они весь фильм носят у себя на руках. Что касается самой истории, то в сюжете нет ничего необычного, и абсолютно стандартная схема. Но что мне понравилось, это легкая детективная линия, когда приходя в каждое новое место, ребята узнают что-то такое из прошлого Джефа Чена, что на него совсем не похоже, и пытаются понять, что же случилось с их лучшим другом, и почему он это от них скрывал.
Что касается актеров — для меня они новые и мне не известные люди. Об актерской игре тоже судить сложно. Ребята отрывались, пили, смеялись и веселились, в общем, делали все, чем занимается современная молодежь на вечеринках, а иногда, наверное, вообще забывали, что их снимает камера. Больше всего повезло Джастину Чону, игравшему Джефа Чена, который отрывался только первые 10 минут, а потом почти весь фильм просто изображал спящего набухавшегося чувака.
Итог. За последнее длительное время «21 и больше» — это та комедия, которая мне действительно понравилась! Свежий, легкий, убойный юмор, которым пропитано каждое слово и каждое действие героев, заставлял меня раз за разом протирать слезящиеся от смеха глаза. А в большой компании друзей этот фильм вообще произведет всплеск положительных эмоций. Поэтому смотрите «21 и больше», смейтесь, веселитесь, развлекайтесь, но ни в коем случае не повторяйте ошибок главных героев фильма. Всем очень рекомендую к просмотру!
10 из 10

MediaInfo:

Общее
Уникальный идентификатор : 208844865411850739231582963816612399583 (0x9D1E0ED945D9511D97702E11A33289DF)
Полное имя : D:\Video\21.and.Over.2013.BDRip.1080p.dts.ac3.Rus.Eng.mkv
Формат : Matroska
Версия формата : Version 4 / Version 2
Размер файла : 9,75 Гбайт
Продолжительность : 1 ч. 33 м.
Общий поток : 15,0 Мбит/сек
Название фильма : Respector
Дата кодирования : UTC 2013-06-06 10:56:39
Программа кодирования : mkvmerge v6.1.0 ('Old Devil') built on Mar 4 2013 09:10:42
Библиотека кодирования : libebml v1.3.0 + libmatroska v1.4.0
Видео
Идентификатор : 1
Формат : AVC
Формат/Информация : Advanced Video Codec
Профиль формата : High@L4.1
Параметр CABAC формата : Да
Параметр ReFrames формата : 5 кадров
Идентификатор кодека : V_MPEG4/ISO/AVC
Продолжительность : 1 ч. 33 м.
Битрейт : 11,0 Мбит/сек
Ширина : 1920 пикселей
Высота : 800 пикселей
Соотношение сторон : 2,40:1
Частота кадров : 23,976 кадра/сек
Цветовое пространство : YUV
Субдискретизация насыщенности : 4:2:0
Битовая глубина : 8 бит
Тип развёртки : Прогрессивная
Бит/(Пиксели*Кадры) : 0.300
Размер потока : 7,18 Гбайт (74%)
Библиотека кодирования : x264 core 132 r2323+704+51 d571b1c tMod [8-bit@4:2:0 X86_64]
Настройки программы : cabac=1 / ref=5 / deblock=1:-3:-3 / analyse=0x3:0x113 / me=umh / subme=11 / psy=1 / fade_compensate=0.00 / psy_rd=1.05:0.00 / mixed_ref=1 / me_range=32 / chroma_me=1 / trellis=2 / 8x8dct=1 / cqm=0 / deadzone=21,11 / fast_pskip=0 / chroma_qp_offset=-2 / threads=36 / lookahead_threads=6 / sliced_threads=0 / nr=0 / decimate=0 / interlaced=0 / bluray_compat=0 / constrained_intra=0 / fgo=0 / bframes=8 / b_pyramid=2 / b_adapt=2 / b_bias=0 / direct=3 / weightb=1 / open_gop=0 / weightp=2 / keyint=240 / keyint_min=24 / scenecut=40 / intra_refresh=0 / rc=crf / mbtree=0 / crf=17.2000 / qcomp=0.70 / qpmin=0 / qpmax=69 / qpstep=4 / ip_ratio=1.20 / pb_ratio=1.20 / aq=4:0.90 / aq-sensitivity=10.00 / aq-factor=1.00:1.00:1.00 / aq2=0 / aq3=0
Язык : English
Default : Да
Forced : Нет
Аудио #1
Идентификатор : 2
Формат : DTS
Формат/Информация : Digital Theater Systems
Идентификатор кодека : A_DTS
Продолжительность : 1 ч. 33 м.
Вид битрейта : Постоянный
Битрейт : 1510 Кбит/сек
Каналы : 6 каналов
Расположение каналов : Front: L C R, Side: L R, LFE
Частота : 48,0 КГц
Битовая глубина : 16 бит
Метод сжатия : С потерями
Задержка видео : 895 мс.
Размер потока : 1005 Мбайт (10%)
Язык : Russian
Default : Да
Forced : Да
Аудио #2
Идентификатор : 3
Формат : AC-3
Формат/Информация : Audio Coding 3
Расширение режима : CM (complete main)
Идентификатор кодека : A_AC3
Продолжительность : 1 ч. 33 м.
Вид битрейта : Постоянный
Битрейт : 640 Кбит/сек
Каналы : 6 каналов
Расположение каналов : Front: L C R, Side: L R, LFE
Частота : 48,0 КГц
Битовая глубина : 16 бит
Метод сжатия : С потерями
Задержка видео : 895 мс.
Размер потока : 426 Мбайт (4%)
Язык : Russian
Default : Нет
Forced : Нет
Аудио #3
Идентификатор : 4
Формат : DTS
Формат/Информация : Digital Theater Systems
Идентификатор кодека : A_DTS
Продолжительность : 1 ч. 33 м.
Вид битрейта : Постоянный
Битрейт : 1510 Кбит/сек
Каналы : 6 каналов
Расположение каналов : Front: L C R, Side: L R, LFE
Частота : 48,0 КГц
Битовая глубина : 24 бит
Метод сжатия : С потерями
Размер потока : 1005 Мбайт (10%)
Язык : English
Default : Нет
Forced : Нет
Текст
Идентификатор : 5
Формат : UTF-8
Идентификатор кодека : S_TEXT/UTF8
Идентификатор кодека/Информация : UTF-8 Plain Text
Язык : English
Default : Нет
Forced : Нет
Скриншоты:


Время раздачи: с 10:00 до 20:00 (GMT+2) - до 15 скачавших

[Цитировать]

Топик был перенесен из форума Новинки кинопроката (HD Video) в форум Зарубежное кино (HD Video)
Bootch



Показать сообщения:    

Текущее время: 07-Дек 23:18

Часовой пояс: UTC + 3


Вы не можете начинать темы
Вы не можете отвечать на сообщения
Вы не можете редактировать свои сообщения
Вы не можете удалять свои сообщения
Вы не можете голосовать в опросах
Вы не можете прикреплять файлы к сообщениям
Вы не можете скачивать файлы

!ВНИМАНИЕ!
Сайт не предоставляет электронные версии произведений, а занимается лишь коллекционированием и каталогизацией ссылок, присылаемых и публикуемых на форуме нашими читателями. Если вы являетесь правообладателем какого-либо представленного материала и не желаете, чтобы ссылка на него находилась в нашем каталоге, свяжитесь с нами, и мы незамедлительно удалим ее. Файлы для обмена на трекере предоставлены пользователями сайта, и администрация не несет ответственности за их содержание. Просьба не заливать файлы, защищенные авторскими правами, а также файлы нелегального содержания!