[ Сегодня идет свободное скачивание без начисления Download ]


Статистика раздачи
Нет
 
   
 
 
 
-После нашей эры / After Earth (2013) CamRip- Русское название: После нашей эры
Год выпуска: 2013
Производство: США
Жанр: Фантастика, Боевик, Приключения
Режиссер: М. Найт Шьямалан
Актеры: Уилл Смит, Джейден Смит, Изабелль Фурман, Дэвид Денман, Зоэ Кравитц, Линкольн Льюис, Крис Гир
Язык: Английский
Перевод: Отсутствует
Субтитры: Отсутствуют
Описание фильма: События разворачиваются через тысячу лет после катастрофы, вынудившей человечество покинуть Землю. Новым домом становится планета под названием Нова Прайм. Легендарный генерал Сайфер Рейдж возвращается с очередного боевого задания в семью, которая раньше обходилась без его родительского внимания, чтобы стать отцом своему 13-летнему сыну Китаю. Во время астероидной бури летательный аппарат с папой и сыном на борту терпит крушение, падая на незнакомую и опасную Землю. И пока Рейдж-старший на последнем дыхании лежит среди обломков своего корабля, сын должен пересечь враждебный ландшафт, чтобы запустить их спасательный маячок. Ни о чем большем юноша в своей жизни не мечтал: быть солдатом, как отец, — его заветное желание. Сегодня у него есть шанс проявить себя.

Дата мировой премьеры: 1 мая 2013
Дата российской премьеры: 6 июня 2013, «WDSSPR»
релиз на DVD/Blu-Ray: 8 октября 2013, «Columbia/Sony»

MI

Формат : AVI
Формат/Информация : Audio Video Interleave
Размер файла : 614 Мбайт
Продолжительность : 1 ч. 33 м.
Общий поток : 919 Кбит/сек
Тема : After Earth (2013) CamRip
Библиотека кодирования : VirtualDub build 32706/release
Видео
Идентификатор : 0
Формат : MPEG-4 Visual
Профиль формата : Advanced Simple@L5
Параметр BVOP формата : 2
Параметр QPel формата : Нет
Параметр GMC формата : Без точки перехода
Параметр матрицы формата : Default (MPEG)
Идентификатор кодека : XVID
Идентификатор кодека/Подсказка : XviD
Продолжительность : 1 ч. 33 м.
Битрейт : 781 Кбит/сек
Ширина : 672 пикселя
Высота : 400 пикселей
Соотношение сторон : 1,680
Частота кадров : 25,000 кадров/сек
Цветовое пространство : YUV
Субдискретизация насыщенности : 4:2:0
Битовая глубина : 8 бит
Тип развёртки : Прогрессивная
Метод сжатия : С потерями
Бит/(Пиксели*Кадры) : 0.116
Размер потока : 522 Мбайт (85%)
Библиотека кодирования : XviD 64
Аудио
Идентификатор : 1
Формат : MPEG Audio
Версия формата : Version 1
Профиль формата : Layer 3
Режим : Joint stereo
Расширение режима : MS Stereo
Идентификатор кодека : 55
Идентификатор кодека/Подсказка : MP3
Продолжительность : 1 ч. 33 м.
Вид битрейта : Постоянный
Битрейт : 128 Кбит/сек
Каналы : 2 канала
Частота : 48,0 КГц
Метод сжатия : С потерями
Размер потока : 85,5 Мбайт (14%)
Выравнивание : Соединение по промежуткам
Продолжительность промежутка : 40 мс. (1,00 видеокадр)
Время предзагрузки промежутка : 504 мс.
Библиотека кодирования : LAME3.98.2
Продолжительность: 01:33:22
Качество видео: CamRip
Видеокодек: Xvid
Битрейт видео: ~781 Кбит/сек
Размер кадра: 672x400
Аудиокодек: MP3, 2 канала
Битрейт аудио: 128 Кбит/сек
Сэмпл: скачать
Скриншоты:

Время раздачи: 24/7 с 19:00 до 02:00

[Цитировать]



Показать сообщения:    

Текущее время: 28-Май 18:26

Часовой пояс: UTC + 6


Вы не можете начинать темы
Вы не можете отвечать на сообщения
Вы не можете редактировать свои сообщения
Вы не можете удалять свои сообщения
Вы не можете голосовать в опросах
Вы не можете прикреплять файлы к сообщениям
Вы не можете скачивать файлы

!ВНИМАНИЕ!
Сайт не предоставляет электронные версии произведений, а занимается лишь коллекционированием и каталогизацией ссылок, присылаемых и публикуемых на форуме нашими читателями. Если вы являетесь правообладателем какого-либо представленного материала и не желаете, чтобы ссылка на него находилась в нашем каталоге, свяжитесь с нами, и мы незамедлительно удалим ее. Файлы для обмена на трекере предоставлены пользователями сайта, и администрация не несет ответственности за их содержание. Просьба не заливать файлы, защищенные авторскими правами, а также файлы нелегального содержания!