[ Сегодня идет свободное скачивание без начисления Download ]


Статистика раздачи
Нет
 
   
 
Top  
 
 
-Легион / Legion (2010) [1080p] Blu-Ray- Русское название: Легион
Оригинальное название: Legion
Год выпуска: 2010
Жанр: Фэнтези, Боевик, Триллер
Режиссер: Скотт Чарльз Стюарт
Актеры: Пол Беттани, Лукас Блэк, Тайриз Гибсон, Эдрианн Палики, Джон Тенни, Уилла Холлэнд, Кейт Уолш, Кевин Дюран, Чарльз С. Даттон, Деннис Куэйд
Продолжительность: 01:40:08
Перевод: Дубляж
Язык субтитров: Английский, Арабский, Болгарский, Хорватский, Чешский, Эстонский, Греческий, Иврит, Хинди, Венгерский, Исландский, Литовский, Польский, Румынский, Сербский, Словацкий, Словенский, Турецкий, УкраинскийОписание:-Бог окончательно разуверился в человечестве и послал ангелов смерти стереть свое творение с лица земли. На защиту людей встал лишь архангел Михаил, объединив под своим командованием горстку изгоев, которые в закусочной посреди пустыни терпеливо ожидают рождения Мессии.
Видеокодек: MPEG-4 AVC/H.264
Битрейт видео: ~ 26908 kbps
Размер кадра: 1920x1080 / 23,976 fps / 16:9
Качество видео: Blu-Ray
Аудиокодек: DTS-HD MA 5.1, AC3 5.1, DTS 2.0
Битрейт аудио:
English DTS-HD Master Audio 5.1 (48 kHz / 2943 kbps / 24-bit) (DTS Core: 5.1 / 48 kHz / 1509 kbps / 24-bit)
Czech Dolby Digital Audio 5.1 (48 kHz / 640 kbps)
Hungarian Dolby Digital Audio 5.1 (48 kHz / 640 kbps)
Polish Dolby Digital Audio 5.1 (48 kHz / 640 kbps)
Russian Dolby Digital Audio 5.1 (48 kHz / 640 kbps)
Turkish Dolby Digital Audio 5.1 (48 kHz / 640 kbps)
English DTS Express 2.0 (48 kHz / 96 kbps / 24-bit)

Знаете ли Вы, что...:

• Большая часть ленты была снята на территории штата Нью-Мексико.
• Перед выходом фильма на экраны был издан комикс с предысторией излагаемых событий.

Дополнительно:

CEE - Central Eastern Europe original release!
Эксклюзивно для БД: Явление Ангелов на Земле
Создание Апокалипсиса
Последняя линия защиты человечества
Создание эффектов: Пиксель за пикселем
Что такое movieIQ?
5 рекламных роликов

BDInfo Report:

Disc Title:
Disc Size: 37 375 063 542 bytes
Protection: AACS
BD-Java: Yes
BDInfo: 0.5.3
Notes:
BDINFO HOME:
Cinema Squid
http://www.cinemasquid.com/blu-ray/tools/bdinfo
INCLUDES FORUMS REPORT FOR:
AVS Forum Blu-ray Audio and Video Specifications Thread
http://www.avsforum.com/avs-vb/showthread.php?t=1155731
********************
PLAYLIST: 00001.MPLS
********************
Код:
Total Video
Title Codec Length Movie Size Disc Size Bitrate Bitrate Main Audio Track Secondary Audio Track
----- ------ ------- -------------- -------------- ------- ------- ------------------ ---------------------
00001.MPLS AVC 1:40:08 27 871 365 120 37 375 063 542 37,11 26,91 DTS-HD Master 5.1 2943Kbps (48kHz/24-bit)
Код:
DISC INFO:
Disc Title:
Disc Size: 37 375 063 542 bytes
Protection: AACS
BD-Java: Yes
BDInfo: 0.5.3
PLAYLIST REPORT:
Name: 00001.MPLS
Length: 1:40:08 (h:m:s)
Size: 27 871 365 120 bytes
Total Bitrate: 37,11 Mbps
(*) Indicates included stream hidden by this playlist.
VIDEO:
Codec Bitrate Description
----- ------- -----------
MPEG-4 AVC Video 26908 kbps 1080p / 23,976 fps / 16:9 / High Profile 4.1
* MPEG-4 AVC Video 1383 kbps 480p / 23,976 fps / 16:9 / High Profile 3.2
AUDIO:
Codec Language Bitrate Description
----- -------- ------- -----------
DTS-HD Master Audio English 2943 kbps 5.1 / 48 kHz / 2943 kbps / 24-bit (DTS Core: 5.1 / 48 kHz / 1509 kbps / 24-bit)
Dolby Digital Audio Czech 640 kbps 5.1 / 48 kHz / 640 kbps
Dolby Digital Audio Hungarian 640 kbps 5.1 / 48 kHz / 640 kbps
Dolby Digital Audio Polish 640 kbps 5.1 / 48 kHz / 640 kbps
Dolby Digital Audio Russian 640 kbps 5.1 / 48 kHz / 640 kbps
Dolby Digital Audio Turkish 640 kbps 5.1 / 48 kHz / 640 kbps
* DTS Express English 96 kbps 2.0 / 48 kHz / 96 kbps / 24-bit
SUBTITLES:
Codec Language Bitrate Description
----- -------- ------- -----------
Presentation Graphics English 23,457 kbps
* Presentation Graphics English 38,049 kbps
Presentation Graphics Arabic 11,573 kbps
Presentation Graphics Bulgarian 20,654 kbps
Presentation Graphics Croatian 20,733 kbps
Presentation Graphics Czech 20,375 kbps
Presentation Graphics Estonian 21,419 kbps
Presentation Graphics Greek 21,835 kbps
Presentation Graphics Hebrew 17,195 kbps
Presentation Graphics Hindi 21,373 kbps
Presentation Graphics Hungarian 18,149 kbps
Presentation Graphics Icelandic 22,266 kbps
Presentation Graphics Lithuanian 21,809 kbps
Presentation Graphics Polish 16,889 kbps
Presentation Graphics Romanian 21,920 kbps
Presentation Graphics Russian 0,111 kbps
Presentation Graphics Serbian 20,631 kbps
Presentation Graphics Slovak 20,116 kbps
Presentation Graphics Slovenian 19,256 kbps
Presentation Graphics Turkish 21,255 kbps
Presentation Graphics Ukrainian 19,464 kbps
FILES:
Name Time In Length Size Total Bitrate
---- ------- ------ ---- -------------
00011.M2TS 0:00:00.000 1:40:08.002 27 871 365 120 37 112
CHAPTERS:
Number Time In Length Avg Video Rate Max 1-Sec Rate Max 1-Sec Time Max 5-Sec Rate Max 5-Sec Time Max 10Sec Rate Max 10Sec Time Avg Frame Size Max Frame Size Max Frame Time
------ ------- ------ -------------- -------------- -------------- -------------- -------------- -------------- -------------- -------------- -------------- --------------
1 0:00:00.000 0:07:06.259 26 582 kbps 41 969 kbps 00:02:38.825 31 858 kbps 00:02:50.753 30 314 kbps 00:01:06.733 138 574 bytes 602 825 bytes 00:01:09.986
2 0:07:06.259 0:07:02.630 27 311 kbps 35 387 kbps 00:12:19.071 29 733 kbps 00:12:36.589 29 084 kbps 00:13:53.374 142 385 bytes 562 848 bytes 00:13:06.118
3 0:14:08.889 0:04:22.136 27 453 kbps 33 189 kbps 00:14:28.659 29 498 kbps 00:14:28.534 28 884 kbps 00:14:28.617 143 128 bytes 456 327 bytes 00:15:34.058
4 0:18:31.026 0:06:53.496 27 833 kbps 36 323 kbps 00:19:05.978 30 689 kbps 00:19:02.182 29 485 kbps 00:22:08.118 145 108 bytes 716 593 bytes 00:22:29.806
5 0:25:24.523 0:05:06.889 27 701 kbps 36 969 kbps 00:28:18.113 30 016 kbps 00:25:57.764 29 179 kbps 00:25:52.759 144 418 bytes 617 628 bytes 00:27:43.787
6 0:30:31.412 0:07:48.509 27 487 kbps 51 797 kbps 00:35:21.994 30 616 kbps 00:30:33.373 30 206 kbps 00:34:12.967 143 302 bytes 771 037 bytes 00:35:22.453
7 0:38:19.922 0:04:26.724 27 111 kbps 39 539 kbps 00:40:30.928 30 790 kbps 00:40:27.299 29 236 kbps 00:38:43.696 141 345 bytes 506 957 bytes 00:41:08.591
8 0:42:46.647 0:06:12.205 27 058 kbps 34 476 kbps 00:42:53.237 28 971 kbps 00:42:53.195 28 419 kbps 00:42:52.987 141 066 bytes 438 941 bytes 00:42:48.315
9 0:48:58.852 0:06:56.874 26 657 kbps 33 741 kbps 00:54:45.407 28 203 kbps 00:55:41.087 27 758 kbps 00:55:38.418 138 977 bytes 459 998 bytes 00:50:37.033
10 0:55:55.727 0:03:11.190 27 233 kbps 35 166 kbps 00:57:21.396 29 115 kbps 00:58:04.355 28 559 kbps 00:57:13.138 141 982 bytes 487 913 bytes 00:57:11.636
11 0:59:06.918 0:08:52.073 27 028 kbps 36 932 kbps 01:02:12.520 29 765 kbps 01:06:45.751 28 724 kbps 01:06:45.418 140 912 bytes 481 906 bytes 01:07:39.680
12 1:07:58.991 0:04:08.206 27 239 kbps 44 343 kbps 01:11:35.249 31 508 kbps 01:10:02.740 29 507 kbps 01:10:02.740 142 013 bytes 588 169 bytes 01:11:32.579
13 1:12:07.197 0:05:28.327 26 912 kbps 51 036 kbps 01:13:04.171 32 386 kbps 01:13:00.250 28 212 kbps 01:16:02.099 140 305 bytes 781 177 bytes 01:13:04.213
14 1:17:35.525 0:06:46.280 27 287 kbps 37 679 kbps 01:21:38.018 31 152 kbps 01:17:51.333 29 720 kbps 01:17:51.583 142 264 bytes 662 690 bytes 01:23:36.219
15 1:24:21.806 0:06:11.120 26 279 kbps 41 866 kbps 01:24:59.761 29 503 kbps 01:26:51.539 28 834 kbps 01:26:48.286 137 005 bytes 715 913 bytes 01:25:53.439
16 1:30:32.927 0:09:35.074 24 813 kbps 37 990 kbps 01:31:33.404 29 067 kbps 01:31:52.423 27 976 kbps 01:31:47.376 129 373 bytes 534 530 bytes 01:38:56.096
STREAM DIAGNOSTICS:
File PID Type Codec Language Seconds Bitrate Bytes Packets
---- --- ---- ----- -------- -------------- -------------- ------------- -----
00011.M2TS 4113 (0x1011) 0x1B AVC 6007,919 26 909 20 208 105 418 109 911 261
00011.M2TS 4352 (0x1100) 0x86 DTS-HD MA eng (English) 6007,919 2 943 2 209 988 136 12 939 222
00011.M2TS 4353 (0x1101) 0x81 AC3 ces (Czech) 6007,919 640 480 642 560 2 816 265
00011.M2TS 4354 (0x1102) 0x81 AC3 hun (Hungarian) 6007,919 640 480 642 560 2 816 265
00011.M2TS 4355 (0x1103) 0x81 AC3 pol (Polish) 6007,919 640 480 642 560 2 816 265
00011.M2TS 4356 (0x1104) 0x81 AC3 rus (Russian) 6007,919 640 480 642 560 2 816 265
00011.M2TS 4357 (0x1105) 0x81 AC3 tur (Turkish) 6007,919 640 480 642 560 2 816 265
00011.M2TS 4608 (0x1200) 0x90 PGS eng (English) 6007,919 23 17 616 196 101 336
00011.M2TS 4609 (0x1201) 0x90 PGS ces (Czech) 6007,919 20 15 301 340 88 804
00011.M2TS 4610 (0x1202) 0x90 PGS hun (Hungarian) 6007,919 18 13 630 173 79 282
00011.M2TS 4611 (0x1203) 0x90 PGS pol (Polish) 6007,919 17 12 683 472 74 241
00011.M2TS 4612 (0x1204) 0x90 PGS tur (Turkish) 6007,919 21 15 962 612 92 154
00011.M2TS 4613 (0x1205) 0x90 PGS ara (Arabic) 6007,919 12 8 691 079 52 615
00011.M2TS 4614 (0x1206) 0x90 PGS bul (Bulgarian) 6007,919 21 15 511 277 89 934
00011.M2TS 4615 (0x1207) 0x90 PGS hrv (Croatian) 6007,919 21 15 570 226 90 277
00011.M2TS 4616 (0x1208) 0x90 PGS est (Estonian) 6007,919 21 16 085 875 92 978
00011.M2TS 4617 (0x1209) 0x90 PGS ell (Greek) 6007,919 22 16 398 212 94 778
00011.M2TS 4618 (0x120A) 0x90 PGS heb (Hebrew) 6007,919 17 12 913 115 75 826
00011.M2TS 4619 (0x120B) 0x90 PGS hin (Hindi) 6007,919 21 16 051 432 92 879
00011.M2TS 4620 (0x120C) 0x90 PGS isl (Icelandic) 6007,919 22 16 721 770 96 078
00011.M2TS 4621 (0x120D) 0x90 PGS lit (Lithuanian) 6007,919 22 16 378 315 94 583
00011.M2TS 4622 (0x120E) 0x90 PGS ron (Romanian) 6007,919 22 16 462 043 94 937
00011.M2TS 4623 (0x120F) 0x90 PGS srp (Serbian) 6007,919 21 15 493 596 89 861
00011.M2TS 4624 (0x1210) 0x90 PGS slk (Slovak) 6007,919 20 15 107 063 87 737
00011.M2TS 4625 (0x1211) 0x90 PGS slv (Slovenian) 6007,919 19 14 461 360 84 226
00011.M2TS 4626 (0x1212) 0x90 PGS ukr (Ukrainian) 6007,919 19 14 617 374 85 070
00011.M2TS 4627 (0x1213) 0x90 PGS rus (Russian) 6007,919 0 83 258 472
00011.M2TS 4628 (0x1214) 0x90 PGS eng (English) 6007,919 38 28 574 483 161 913
00011.M2TS 6656 (0x1A00) 0xA2 DTS Express eng (English) 6007,919 96 72 096 768 422 442
00011.M2TS 6912 (0x1B00) 0x1B AVC 6007,919 1 383 1 038 409 136 5 723 918
QUICK SUMMARY:
Disc Title:
Disc Size: 37 375 063 542 bytes
Protection: AACS
BD-Java: Yes
Playlist: 00001.MPLS
Size: 27 871 365 120 bytes
Length: 1:40:08
Total Bitrate: 37,11 Mbps
Video: MPEG-4 AVC Video / 26908 kbps / 1080p / 23,976 fps / 16:9 / High Profile 4.1
* Video: MPEG-4 AVC Video / 1383 kbps / 480p / 23,976 fps / 16:9 / High Profile 3.2
Audio: English / DTS-HD Master Audio / 5.1 / 48 kHz / 2943 kbps / 24-bit (DTS Core: 5.1 / 48 kHz / 1509 kbps / 24-bit)
Audio: Czech / Dolby Digital Audio / 5.1 / 48 kHz / 640 kbps
Audio: Hungarian / Dolby Digital Audio / 5.1 / 48 kHz / 640 kbps
Audio: Polish / Dolby Digital Audio / 5.1 / 48 kHz / 640 kbps
Audio: Russian / Dolby Digital Audio / 5.1 / 48 kHz / 640 kbps
Audio: Turkish / Dolby Digital Audio / 5.1 / 48 kHz / 640 kbps
* Audio: English / DTS Express / 2.0 / 48 kHz / 96 kbps / 24-bit
Subtitle: English / 23,457 kbps
* Subtitle: English / 38,049 kbps
Subtitle: Arabic / 11,573 kbps
Subtitle: Bulgarian / 20,654 kbps
Subtitle: Croatian / 20,733 kbps
Subtitle: Czech / 20,375 kbps
Subtitle: Estonian / 21,419 kbps
Subtitle: Greek / 21,835 kbps
Subtitle: Hebrew / 17,195 kbps
Subtitle: Hindi / 21,373 kbps
Subtitle: Hungarian / 18,149 kbps
Subtitle: Icelandic / 22,266 kbps
Subtitle: Lithuanian / 21,809 kbps
Subtitle: Polish / 16,889 kbps
Subtitle: Romanian / 21,920 kbps
Subtitle: Russian / 0,111 kbps
Subtitle: Serbian / 20,631 kbps
Subtitle: Slovak / 20,116 kbps
Subtitle: Slovenian / 19,256 kbps
Subtitle: Turkish / 21,255 kbps
Subtitle: Ukrainian / 19,464 kbps
********************
PLAYLIST: 00007.MPLS
********************
Код:
Total Video
Title Codec Length Movie Size Disc Size Bitrate Bitrate Main Audio Track Secondary Audio Track
----- ------ ------- -------------- -------------- ------- ------- ------------------ ---------------------
00007.MPLS AVC 1:40:08 27 871 365 120 37 375 063 542 37,11 26,91 DTS-HD Master 5.1 2943Kbps (48kHz/24-bit)
Код:
DISC INFO:
Disc Title:
Disc Size: 37 375 063 542 bytes
Protection: AACS
BD-Java: Yes
BDInfo: 0.5.3
PLAYLIST REPORT:
Name: 00007.MPLS
Length: 1:40:08 (h:m:s)
Size: 27 871 365 120 bytes
Total Bitrate: 37,11 Mbps
VIDEO:
Codec Bitrate Description
----- ------- -----------
MPEG-4 AVC Video 26908 kbps 1080p / 23,976 fps / 16:9 / High Profile 4.1
MPEG-4 AVC Video 1383 kbps 480p / 23,976 fps / 16:9 / High Profile 3.2
AUDIO:
Codec Language Bitrate Description
----- -------- ------- -----------
DTS-HD Master Audio English 2943 kbps 5.1 / 48 kHz / 2943 kbps / 24-bit (DTS Core: 5.1 / 48 kHz / 1509 kbps / 24-bit)
Dolby Digital Audio Czech 640 kbps 5.1 / 48 kHz / 640 kbps
Dolby Digital Audio Hungarian 640 kbps 5.1 / 48 kHz / 640 kbps
Dolby Digital Audio Polish 640 kbps 5.1 / 48 kHz / 640 kbps
Dolby Digital Audio Russian 640 kbps 5.1 / 48 kHz / 640 kbps
Dolby Digital Audio Turkish 640 kbps 5.1 / 48 kHz / 640 kbps
DTS Express English 96 kbps 2.0 / 48 kHz / 96 kbps / 24-bit
SUBTITLES:
Codec Language Bitrate Description
----- -------- ------- -----------
Presentation Graphics English 23,457 kbps
Presentation Graphics English 38,049 kbps
Presentation Graphics Arabic 11,573 kbps
Presentation Graphics Bulgarian 20,654 kbps
Presentation Graphics Croatian 20,733 kbps
Presentation Graphics Czech 20,375 kbps
Presentation Graphics Estonian 21,419 kbps
Presentation Graphics Greek 21,835 kbps
Presentation Graphics Hebrew 17,195 kbps
Presentation Graphics Hindi 21,373 kbps
Presentation Graphics Hungarian 18,149 kbps
Presentation Graphics Icelandic 22,266 kbps
Presentation Graphics Lithuanian 21,809 kbps
Presentation Graphics Polish 16,889 kbps
Presentation Graphics Romanian 21,920 kbps
Presentation Graphics Russian 0,111 kbps
Presentation Graphics Serbian 20,631 kbps
Presentation Graphics Slovak 20,116 kbps
Presentation Graphics Slovenian 19,256 kbps
Presentation Graphics Turkish 21,255 kbps
Presentation Graphics Ukrainian 19,464 kbps
FILES:
Name Time In Length Size Total Bitrate
---- ------- ------ ---- -------------
00011.M2TS 0:00:00.000 1:40:08.002 27 871 365 120 37 112
CHAPTERS:
Number Time In Length Avg Video Rate Max 1-Sec Rate Max 1-Sec Time Max 5-Sec Rate Max 5-Sec Time Max 10Sec Rate Max 10Sec Time Avg Frame Size Max Frame Size Max Frame Time
------ ------- ------ -------------- -------------- -------------- -------------- -------------- -------------- -------------- -------------- -------------- --------------
1 0:00:00.000 1:40:08.002 26 908 kbps 51 797 kbps 00:35:21.994 32 386 kbps 01:13:00.250 30 314 kbps 00:01:06.733 140 287 bytes 781 177 bytes 01:13:04.213
STREAM DIAGNOSTICS:
File PID Type Codec Language Seconds Bitrate Bytes Packets
---- --- ---- ----- -------- -------------- -------------- ------------- -----
00011.M2TS 4113 (0x1011) 0x1B AVC 6007,919 26 909 20 208 105 418 109 911 261
00011.M2TS 4352 (0x1100) 0x86 DTS-HD MA eng (English) 6007,919 2 943 2 209 988 136 12 939 222
00011.M2TS 4353 (0x1101) 0x81 AC3 ces (Czech) 6007,919 640 480 642 560 2 816 265
00011.M2TS 4354 (0x1102) 0x81 AC3 hun (Hungarian) 6007,919 640 480 642 560 2 816 265
00011.M2TS 4355 (0x1103) 0x81 AC3 pol (Polish) 6007,919 640 480 642 560 2 816 265
00011.M2TS 4356 (0x1104) 0x81 AC3 rus (Russian) 6007,919 640 480 642 560 2 816 265
00011.M2TS 4357 (0x1105) 0x81 AC3 tur (Turkish) 6007,919 640 480 642 560 2 816 265
00011.M2TS 4608 (0x1200) 0x90 PGS eng (English) 6007,919 23 17 616 196 101 336
00011.M2TS 4609 (0x1201) 0x90 PGS ces (Czech) 6007,919 20 15 301 340 88 804
00011.M2TS 4610 (0x1202) 0x90 PGS hun (Hungarian) 6007,919 18 13 630 173 79 282
00011.M2TS 4611 (0x1203) 0x90 PGS pol (Polish) 6007,919 17 12 683 472 74 241
00011.M2TS 4612 (0x1204) 0x90 PGS tur (Turkish) 6007,919 21 15 962 612 92 154
00011.M2TS 4613 (0x1205) 0x90 PGS ara (Arabic) 6007,919 12 8 691 079 52 615
00011.M2TS 4614 (0x1206) 0x90 PGS bul (Bulgarian) 6007,919 21 15 511 277 89 934
00011.M2TS 4615 (0x1207) 0x90 PGS hrv (Croatian) 6007,919 21 15 570 226 90 277
00011.M2TS 4616 (0x1208) 0x90 PGS est (Estonian) 6007,919 21 16 085 875 92 978
00011.M2TS 4617 (0x1209) 0x90 PGS ell (Greek) 6007,919 22 16 398 212 94 778
00011.M2TS 4618 (0x120A) 0x90 PGS heb (Hebrew) 6007,919 17 12 913 115 75 826
00011.M2TS 4619 (0x120B) 0x90 PGS hin (Hindi) 6007,919 21 16 051 432 92 879
00011.M2TS 4620 (0x120C) 0x90 PGS isl (Icelandic) 6007,919 22 16 721 770 96 078
00011.M2TS 4621 (0x120D) 0x90 PGS lit (Lithuanian) 6007,919 22 16 378 315 94 583
00011.M2TS 4622 (0x120E) 0x90 PGS ron (Romanian) 6007,919 22 16 462 043 94 937
00011.M2TS 4623 (0x120F) 0x90 PGS srp (Serbian) 6007,919 21 15 493 596 89 861
00011.M2TS 4624 (0x1210) 0x90 PGS slk (Slovak) 6007,919 20 15 107 063 87 737
00011.M2TS 4625 (0x1211) 0x90 PGS slv (Slovenian) 6007,919 19 14 461 360 84 226
00011.M2TS 4626 (0x1212) 0x90 PGS ukr (Ukrainian) 6007,919 19 14 617 374 85 070
00011.M2TS 4627 (0x1213) 0x90 PGS rus (Russian) 6007,919 0 83 258 472
00011.M2TS 4628 (0x1214) 0x90 PGS eng (English) 6007,919 38 28 574 483 161 913
00011.M2TS 6656 (0x1A00) 0xA2 DTS Express eng (English) 6007,919 96 72 096 768 422 442
00011.M2TS 6912 (0x1B00) 0x1B AVC 6007,919 1 383 1 038 409 136 5 723 918
QUICK SUMMARY:
Disc Title:
Disc Size: 37 375 063 542 bytes
Protection: AACS
BD-Java: Yes
Playlist: 00007.MPLS
Size: 27 871 365 120 bytes
Length: 1:40:08
Total Bitrate: 37,11 Mbps
Video: MPEG-4 AVC Video / 26908 kbps / 1080p / 23,976 fps / 16:9 / High Profile 4.1
Video: MPEG-4 AVC Video / 1383 kbps / 480p / 23,976 fps / 16:9 / High Profile 3.2
Audio: English / DTS-HD Master Audio / 5.1 / 48 kHz / 2943 kbps / 24-bit (DTS Core: 5.1 / 48 kHz / 1509 kbps / 24-bit)
Audio: Czech / Dolby Digital Audio / 5.1 / 48 kHz / 640 kbps
Audio: Hungarian / Dolby Digital Audio / 5.1 / 48 kHz / 640 kbps
Audio: Polish / Dolby Digital Audio / 5.1 / 48 kHz / 640 kbps
Audio: Russian / Dolby Digital Audio / 5.1 / 48 kHz / 640 kbps
Audio: Turkish / Dolby Digital Audio / 5.1 / 48 kHz / 640 kbps
Audio: English / DTS Express / 2.0 / 48 kHz / 96 kbps / 24-bit
Subtitle: English / 23,457 kbps
Subtitle: English / 38,049 kbps
Subtitle: Arabic / 11,573 kbps
Subtitle: Bulgarian / 20,654 kbps
Subtitle: Croatian / 20,733 kbps
Subtitle: Czech / 20,375 kbps
Subtitle: Estonian / 21,419 kbps
Subtitle: Greek / 21,835 kbps
Subtitle: Hebrew / 17,195 kbps
Subtitle: Hindi / 21,373 kbps
Subtitle: Hungarian / 18,149 kbps
Subtitle: Icelandic / 22,266 kbps
Subtitle: Lithuanian / 21,809 kbps
Subtitle: Polish / 16,889 kbps
Subtitle: Romanian / 21,920 kbps
Subtitle: Russian / 0,111 kbps
Subtitle: Serbian / 20,631 kbps
Subtitle: Slovak / 20,116 kbps
Subtitle: Slovenian / 19,256 kbps
Subtitle: Turkish / 21,255 kbps
Subtitle: Ukrainian / 19,464 kbps
********************
PLAYLIST: 00010.MPLS
********************
Код:
Total Video
Title Codec Length Movie Size Disc Size Bitrate Bitrate Main Audio Track Secondary Audio Track
----- ------ ------- -------------- -------------- ------- ------- ------------------ ---------------------
00010.MPLS AVC 1:40:08 27 871 365 120 37 375 063 542 37,11 26,91 DTS-HD Master 5.1 2943Kbps (48kHz/24-bit)
Код:
DISC INFO:
Disc Title:
Disc Size: 37 375 063 542 bytes
Protection: AACS
BD-Java: Yes
BDInfo: 0.5.3
PLAYLIST REPORT:
Name: 00010.MPLS
Length: 1:40:08 (h:m:s)
Size: 27 871 365 120 bytes
Total Bitrate: 37,11 Mbps
(*) Indicates included stream hidden by this playlist.
VIDEO:
Codec Bitrate Description
----- ------- -----------
MPEG-4 AVC Video 26908 kbps 1080p / 23,976 fps / 16:9 / High Profile 4.1
MPEG-4 AVC Video 1383 kbps 480p / 23,976 fps / 16:9 / High Profile 3.2
AUDIO:
Codec Language Bitrate Description
----- -------- ------- -----------
DTS-HD Master Audio English 2943 kbps 5.1 / 48 kHz / 2943 kbps / 24-bit (DTS Core: 5.1 / 48 kHz / 1509 kbps / 24-bit)
Dolby Digital Audio Czech 640 kbps 5.1 / 48 kHz / 640 kbps
Dolby Digital Audio Hungarian 640 kbps 5.1 / 48 kHz / 640 kbps
Dolby Digital Audio Polish 640 kbps 5.1 / 48 kHz / 640 kbps
Dolby Digital Audio Russian 640 kbps 5.1 / 48 kHz / 640 kbps
Dolby Digital Audio Turkish 640 kbps 5.1 / 48 kHz / 640 kbps
DTS Express English 96 kbps 2.0 / 48 kHz / 96 kbps / 24-bit
SUBTITLES:
Codec Language Bitrate Description
----- -------- ------- -----------
* Presentation Graphics English 23,457 kbps
Presentation Graphics English 38,049 kbps
* Presentation Graphics Arabic 11,573 kbps
* Presentation Graphics Bulgarian 20,654 kbps
* Presentation Graphics Croatian 20,733 kbps
* Presentation Graphics Czech 20,375 kbps
* Presentation Graphics Estonian 21,419 kbps
* Presentation Graphics Greek 21,835 kbps
* Presentation Graphics Hebrew 17,195 kbps
* Presentation Graphics Hindi 21,373 kbps
* Presentation Graphics Hungarian 18,149 kbps
* Presentation Graphics Icelandic 22,266 kbps
* Presentation Graphics Lithuanian 21,809 kbps
* Presentation Graphics Polish 16,889 kbps
* Presentation Graphics Romanian 21,920 kbps
* Presentation Graphics Russian 0,111 kbps
* Presentation Graphics Serbian 20,631 kbps
* Presentation Graphics Slovak 20,116 kbps
* Presentation Graphics Slovenian 19,256 kbps
* Presentation Graphics Turkish 21,255 kbps
* Presentation Graphics Ukrainian 19,464 kbps
FILES:
Name Time In Length Size Total Bitrate
---- ------- ------ ---- -------------
00011.M2TS 0:00:00.000 1:40:08.002 27 871 365 120 37 112
CHAPTERS:
Number Time In Length Avg Video Rate Max 1-Sec Rate Max 1-Sec Time Max 5-Sec Rate Max 5-Sec Time Max 10Sec Rate Max 10Sec Time Avg Frame Size Max Frame Size Max Frame Time
------ ------- ------ -------------- -------------- -------------- -------------- -------------- -------------- -------------- -------------- -------------- --------------
1 0:00:00.000 0:00:16.433 20 141 kbps 30 335 kbps 00:00:03.253 25 216 kbps 00:00:04.087 22 564 kbps 00:00:01.751 104 738 bytes 326 827 bytes 00:00:16.307
2 0:00:16.433 0:00:57.348 26 167 kbps 39 280 kbps 00:01:09.944 31 110 kbps 00:01:07.442 29 732 kbps 00:01:03.354 136 423 bytes 602 825 bytes 00:01:09.986
3 0:01:13.782 0:06:59.919 26 935 kbps 41 969 kbps 00:02:38.825 31 858 kbps 00:02:50.753 30 218 kbps 00:02:45.748 140 427 bytes 570 515 bytes 00:01:44.020
4 0:08:13.701 0:03:43.348 27 293 kbps 33 987 kbps 00:10:50.024 29 615 kbps 00:10:24.081 28 691 kbps 00:10:18.993 142 293 bytes 449 291 bytes 00:11:33.776
5 0:11:57.049 0:01:03.813 27 394 kbps 35 387 kbps 00:12:19.071 29 733 kbps 00:12:36.589 28 953 kbps 00:12:31.584 142 821 bytes 522 613 bytes 00:12:48.267
6 0:13:00.863 0:01:24.959 27 768 kbps 35 235 kbps 00:13:13.542 29 529 kbps 00:13:58.546 29 084 kbps 00:13:53.374 144 772 bytes 562 848 bytes 00:13:06.118
7 0:14:25.823 0:00:46.379 27 736 kbps 33 189 kbps 00:14:28.659 29 498 kbps 00:14:28.534 28 884 kbps 00:14:28.617 144 601 bytes 426 439 bytes 00:14:57.897
8 0:15:12.202 0:00:31.948 27 438 kbps 32 035 kbps 00:15:13.370 28 789 kbps 00:15:12.995 28 163 kbps 00:15:13.370 143 047 bytes 456 327 bytes 00:15:34.058
9 0:15:44.151 0:00:41.916 26 969 kbps 31 912 kbps 00:16:16.892 28 652 kbps 00:16:20.980 28 056 kbps 00:16:16.058 140 606 bytes 408 442 bytes 00:15:53.452
10 0:16:26.068 0:01:18.995 27 499 kbps 31 855 kbps 00:16:30.280 28 572 kbps 00:16:29.446 28 128 kbps 00:17:22.666 143 367 bytes 429 653 bytes 00:17:06.900
11 0:17:45.064 0:01:33.551 27 634 kbps 36 323 kbps 00:19:05.978 30 689 kbps 00:19:02.182 29 095 kbps 00:18:30.359 144 069 bytes 470 811 bytes 00:18:45.207
12 0:19:18.615 0:02:42.412 27 783 kbps 35 265 kbps 00:19:39.261 29 893 kbps 00:19:49.187 28 907 kbps 00:19:44.141 144 847 bytes 510 949 bytes 00:20:40.572
13 0:22:01.028 0:02:52.964 27 860 kbps 35 303 kbps 00:22:08.201 29 655 kbps 00:22:07.909 29 485 kbps 00:22:08.118 145 249 bytes 716 593 bytes 00:22:29.806
14 0:24:53.992 0:00:59.726 27 944 kbps 32 595 kbps 00:25:16.181 29 408 kbps 00:24:58.288 28 755 kbps 00:25:08.423 145 689 bytes 436 022 bytes 00:25:16.306
15 0:25:53.718 0:01:53.113 28 036 kbps 36 606 kbps 00:26:15.490 30 016 kbps 00:25:57.764 28 784 kbps 00:27:17.177 146 165 bytes 617 628 bytes 00:27:43.787
16 0:27:46.831 0:01:20.080 27 609 kbps 36 969 kbps 00:28:18.113 29 607 kbps 00:28:35.130 28 877 kbps 00:28:09.270 143 939 bytes 541 384 bytes 00:28:10.188
17 0:29:06.911 0:01:15.116 27 623 kbps 35 432 kbps 00:29:11.833 29 480 kbps 00:29:08.538 28 534 kbps 00:30:01.174 144 011 bytes 490 719 bytes 00:30:08.973
18 0:30:22.028 0:02:45.790 27 897 kbps 36 673 kbps 00:30:33.373 30 847 kbps 00:30:31.329 30 202 kbps 00:30:31.329 145 442 bytes 545 829 bytes 00:31:00.817
19 0:33:07.819 0:01:21.498 27 406 kbps 39 350 kbps 00:34:01.914 30 405 kbps 00:34:17.055 30 206 kbps 00:34:12.967 142 880 bytes 527 623 bytes 00:33:20.707
20 0:34:29.317 0:00:34.909 27 689 kbps 34 490 kbps 00:34:41.204 29 347 kbps 00:34:41.329 29 000 kbps 00:34:41.162 144 357 bytes 485 116 bytes 00:34:43.039
21 0:35:04.227 0:01:06.441 26 207 kbps 51 797 kbps 00:35:21.994 30 412 kbps 00:35:32.505 29 280 kbps 00:35:32.505 136 634 bytes 771 037 bytes 00:35:22.453
22 0:36:10.668 0:00:40.123 26 979 kbps 32 360 kbps 00:36:43.367 28 001 kbps 00:36:39.906 27 766 kbps 00:36:35.651 140 656 bytes 404 767 bytes 00:36:37.653
23 0:36:50.791 0:00:46.838 27 427 kbps 34 329 kbps 00:36:54.378 28 471 kbps 00:37:26.410 28 169 kbps 00:37:18.152 142 990 bytes 391 748 bytes 00:36:55.087
24 0:37:37.630 0:00:40.832 27 587 kbps 35 817 kbps 00:38:00.778 29 698 kbps 00:38:00.778 28 605 kbps 00:37:57.233 143 828 bytes 419 466 bytes 00:37:51.602
25 0:38:18.462 0:01:05.899 27 050 kbps 38 715 kbps 00:39:01.797 30 656 kbps 00:38:48.826 29 236 kbps 00:38:43.696 141 027 bytes 458 787 bytes 00:39:02.548
26 0:39:24.362 0:00:22.522 26 989 kbps 35 731 kbps 00:39:32.203 28 468 kbps 00:39:32.203 28 001 kbps 00:39:28.783 140 706 bytes 428 854 bytes 00:39:27.490
27 0:39:46.884 0:02:11.297 27 203 kbps 39 539 kbps 00:40:30.928 30 790 kbps 00:40:27.299 29 140 kbps 00:40:23.671 141 823 bytes 506 957 bytes 00:41:08.591
28 0:41:58.182 0:00:32.782 27 188 kbps 32 063 kbps 00:42:29.630 28 123 kbps 00:42:25.626 27 593 kbps 00:42:11.695 141 745 bytes 393 494 bytes 00:42:29.672
29 0:42:30.965 0:01:07.108 27 042 kbps 34 476 kbps 00:42:53.237 28 971 kbps 00:42:53.195 28 419 kbps 00:42:52.987 140 985 bytes 445 741 bytes 00:42:46.647
30 0:43:38.073 0:02:13.007 27 079 kbps 31 986 kbps 00:44:27.414 28 026 kbps 00:44:58.570 27 932 kbps 00:44:27.414 141 175 bytes 437 292 bytes 00:43:59.636
31 0:45:51.081 0:01:18.620 26 985 kbps 32 026 kbps 00:46:13.061 28 706 kbps 00:46:13.061 28 004 kbps 00:46:13.061 140 687 bytes 412 953 bytes 00:46:07.222
32 0:47:09.701 0:01:48.817 27 061 kbps 31 354 kbps 00:47:22.756 28 193 kbps 00:47:26.176 27 570 kbps 00:47:22.756 141 085 bytes 405 624 bytes 00:47:13.288
33 0:48:58.518 0:01:15.575 27 232 kbps 31 237 kbps 00:49:01.271 28 110 kbps 00:49:18.747 27 701 kbps 00:49:40.435 141 974 bytes 406 664 bytes 00:49:42.104
34 0:50:14.094 0:03:24.871 26 876 kbps 32 316 kbps 00:50:16.013 28 169 kbps 00:50:16.013 27 614 kbps 00:50:46.752 140 119 bytes 459 998 bytes 00:50:37.033
35 0:53:38.965 0:00:33.867 26 130 kbps 33 185 kbps 00:53:53.396 27 964 kbps 00:53:49.559 27 247 kbps 00:53:45.305 136 232 bytes 441 261 bytes 00:53:54.189
36 0:54:12.832 0:01:52.529 26 095 kbps 33 741 kbps 00:54:45.407 28 265 kbps 00:55:56.811 27 758 kbps 00:55:38.418 136 045 bytes 453 794 bytes 00:54:45.490
37 0:56:05.362 0:01:34.302 27 229 kbps 35 166 kbps 00:57:21.396 29 092 kbps 00:57:18.393 28 559 kbps 00:57:13.138 141 959 bytes 487 913 bytes 00:57:11.636
38 0:57:39.664 0:01:27.253 27 231 kbps 33 520 kbps 00:57:50.216 29 115 kbps 00:58:04.355 28 378 kbps 00:57:46.880 141 968 bytes 430 659 bytes 00:58:33.092
39 0:59:06.918 0:02:46.833 27 428 kbps 31 710 kbps 01:01:39.320 28 949 kbps 00:59:53.923 28 269 kbps 00:59:48.918 142 997 bytes 467 616 bytes 01:01:40.154
40 1:01:53.751 0:02:54.424 26 904 kbps 36 932 kbps 01:02:12.520 28 383 kbps 01:02:08.474 27 656 kbps 01:02:04.220 140 266 bytes 406 386 bytes 01:02:34.917
41 1:04:48.175 0:01:36.012 26 510 kbps 31 093 kbps 01:06:06.837 28 549 kbps 01:06:05.711 27 565 kbps 01:06:04.001 138 209 bytes 446 034 bytes 01:06:24.188
42 1:06:24.188 0:01:55.657 27 091 kbps 33 567 kbps 01:07:48.022 29 765 kbps 01:06:45.751 28 724 kbps 01:06:45.418 141 237 bytes 481 906 bytes 01:07:39.680
43 1:08:19.845 0:00:43.626 27 406 kbps 32 924 kbps 01:08:22.014 29 151 kbps 01:08:21.972 28 028 kbps 01:08:46.247 142 885 bytes 413 292 bytes 01:08:39.865
44 1:09:03.472 0:00:19.686 27 204 kbps 31 785 kbps 01:09:13.858 28 414 kbps 01:09:10.688 27 974 kbps 01:09:05.641 141 832 bytes 395 642 bytes 01:09:12.189
45 1:09:23.159 0:00:20.812 27 788 kbps 34 191 kbps 01:09:23.534 29 355 kbps 01:09:23.659 28 465 kbps 01:09:23.659 144 876 bytes 459 504 bytes 01:09:30.583
46 1:09:43.971 0:02:03.414 27 331 kbps 44 343 kbps 01:11:35.249 31 508 kbps 01:10:02.740 29 507 kbps 01:10:02.740 142 491 bytes 588 169 bytes 01:11:32.579
47 1:11:47.386 0:00:27.360 25 994 kbps 37 730 kbps 01:12:04.236 28 716 kbps 01:12:00.316 27 538 kbps 01:11:55.352 135 522 bytes 400 547 bytes 01:11:49.513
48 1:12:14.747 0:01:17.952 26 368 kbps 51 036 kbps 01:13:04.171 32 386 kbps 01:13:00.250 28 125 kbps 01:12:59.583 137 473 bytes 781 177 bytes 01:13:04.213
49 1:13:32.699 0:01:35.261 27 096 kbps 34 221 kbps 01:13:36.829 29 042 kbps 01:13:32.950 27 734 kbps 01:14:51.528 141 266 bytes 427 518 bytes 01:14:59.870
50 1:15:07.961 0:01:35.303 27 174 kbps 32 619 kbps 01:16:04.101 29 147 kbps 01:16:01.181 28 212 kbps 01:16:02.099 141 674 bytes 416 896 bytes 01:16:09.314
51 1:16:43.265 0:01:57.659 27 418 kbps 36 687 kbps 01:17:51.333 31 152 kbps 01:17:51.333 29 720 kbps 01:17:51.583 142 946 bytes 477 363 bytes 01:18:32.374
52 1:18:40.924 0:01:32.926 27 005 kbps 32 985 kbps 01:19:36.646 29 540 kbps 01:18:52.310 28 219 kbps 01:19:34.311 140 793 bytes 413 526 bytes 01:18:56.773
53 1:20:13.850 0:01:54.364 27 320 kbps 37 679 kbps 01:21:38.018 29 555 kbps 01:21:20.000 28 970 kbps 01:21:25.964 142 435 bytes 445 034 bytes 01:21:27.716
54 1:22:08.214 0:01:05.023 27 378 kbps 36 602 kbps 01:22:17.182 29 728 kbps 01:23:02.352 28 494 kbps 01:22:50.882 142 738 bytes 470 149 bytes 01:22:15.555
55 1:23:13.238 0:01:51.736 26 951 kbps 41 866 kbps 01:24:59.761 29 299 kbps 01:24:41.951 28 396 kbps 01:24:04.080 140 508 bytes 662 690 bytes 01:23:36.219
56 1:25:04.974 0:02:19.639 26 458 kbps 39 260 kbps 01:25:53.356 29 503 kbps 01:26:51.539 28 834 kbps 01:26:48.286 137 941 bytes 715 913 bytes 01:25:53.439
57 1:27:24.614 0:01:22.749 26 127 kbps 36 274 kbps 01:28:43.484 28 284 kbps 01:28:39.522 27 286 kbps 01:28:34.642 136 216 bytes 496 298 bytes 01:27:40.255
58 1:28:47.363 0:01:48.233 25 939 kbps 35 659 kbps 01:28:53.828 28 300 kbps 01:28:52.785 26 862 kbps 01:30:22.917 135 235 bytes 455 044 bytes 01:28:54.662
59 1:30:35.596 0:00:37.495 26 058 kbps 30 873 kbps 01:30:49.485 27 721 kbps 01:31:07.003 26 552 kbps 01:31:01.998 135 852 bytes 408 883 bytes 01:30:41.227
60 1:31:13.092 0:00:49.340 26 366 kbps 37 990 kbps 01:31:33.404 29 067 kbps 01:31:52.423 27 976 kbps 01:31:47.376 137 462 bytes 421 505 bytes 01:31:53.549
61 1:32:02.433 0:08:05.568 24 559 kbps 37 845 kbps 01:32:24.789 28 744 kbps 01:32:23.996 27 418 kbps 01:32:18.991 128 050 bytes 534 530 bytes 01:38:56.096
STREAM DIAGNOSTICS:
File PID Type Codec Language Seconds Bitrate Bytes Packets
---- --- ---- ----- -------- -------------- -------------- ------------- -----
00011.M2TS 4113 (0x1011) 0x1B AVC 6007,919 26 909 20 208 105 418 109 911 261
00011.M2TS 4352 (0x1100) 0x86 DTS-HD MA eng (English) 6007,919 2 943 2 209 988 136 12 939 222
00011.M2TS 4353 (0x1101) 0x81 AC3 ces (Czech) 6007,919 640 480 642 560 2 816 265
00011.M2TS 4354 (0x1102) 0x81 AC3 hun (Hungarian) 6007,919 640 480 642 560 2 816 265
00011.M2TS 4355 (0x1103) 0x81 AC3 pol (Polish) 6007,919 640 480 642 560 2 816 265
00011.M2TS 4356 (0x1104) 0x81 AC3 rus (Russian) 6007,919 640 480 642 560 2 816 265
00011.M2TS 4357 (0x1105) 0x81 AC3 tur (Turkish) 6007,919 640 480 642 560 2 816 265
00011.M2TS 4608 (0x1200) 0x90 PGS eng (English) 6007,919 23 17 616 196 101 336
00011.M2TS 4609 (0x1201) 0x90 PGS ces (Czech) 6007,919 20 15 301 340 88 804
00011.M2TS 4610 (0x1202) 0x90 PGS hun (Hungarian) 6007,919 18 13 630 173 79 282
00011.M2TS 4611 (0x1203) 0x90 PGS pol (Polish) 6007,919 17 12 683 472 74 241
00011.M2TS 4612 (0x1204) 0x90 PGS tur (Turkish) 6007,919 21 15 962 612 92 154
00011.M2TS 4613 (0x1205) 0x90 PGS ara (Arabic) 6007,919 12 8 691 079 52 615
00011.M2TS 4614 (0x1206) 0x90 PGS bul (Bulgarian) 6007,919 21 15 511 277 89 934
00011.M2TS 4615 (0x1207) 0x90 PGS hrv (Croatian) 6007,919 21 15 570 226 90 277
00011.M2TS 4616 (0x1208) 0x90 PGS est (Estonian) 6007,919 21 16 085 875 92 978
00011.M2TS 4617 (0x1209) 0x90 PGS ell (Greek) 6007,919 22 16 398 212 94 778
00011.M2TS 4618 (0x120A) 0x90 PGS heb (Hebrew) 6007,919 17 12 913 115 75 826
00011.M2TS 4619 (0x120B) 0x90 PGS hin (Hindi) 6007,919 21 16 051 432 92 879
00011.M2TS 4620 (0x120C) 0x90 PGS isl (Icelandic) 6007,919 22 16 721 770 96 078
00011.M2TS 4621 (0x120D) 0x90 PGS lit (Lithuanian) 6007,919 22 16 378 315 94 583
00011.M2TS 4622 (0x120E) 0x90 PGS ron (Romanian) 6007,919 22 16 462 043 94 937
00011.M2TS 4623 (0x120F) 0x90 PGS srp (Serbian) 6007,919 21 15 493 596 89 861
00011.M2TS 4624 (0x1210) 0x90 PGS slk (Slovak) 6007,919 20 15 107 063 87 737
00011.M2TS 4625 (0x1211) 0x90 PGS slv (Slovenian) 6007,919 19 14 461 360 84 226
00011.M2TS 4626 (0x1212) 0x90 PGS ukr (Ukrainian) 6007,919 19 14 617 374 85 070
00011.M2TS 4627 (0x1213) 0x90 PGS rus (Russian) 6007,919 0 83 258 472
00011.M2TS 4628 (0x1214) 0x90 PGS eng (English) 6007,919 38 28 574 483 161 913
00011.M2TS 6656 (0x1A00) 0xA2 DTS Express eng (English) 6007,919 96 72 096 768 422 442
00011.M2TS 6912 (0x1B00) 0x1B AVC 6007,919 1 383 1 038 409 136 5 723 918
QUICK SUMMARY:
Disc Title:
Disc Size: 37 375 063 542 bytes
Protection: AACS
BD-Java: Yes
Playlist: 00010.MPLS
Size: 27 871 365 120 bytes
Length: 1:40:08
Total Bitrate: 37,11 Mbps
Video: MPEG-4 AVC Video / 26908 kbps / 1080p / 23,976 fps / 16:9 / High Profile 4.1
Video: MPEG-4 AVC Video / 1383 kbps / 480p / 23,976 fps / 16:9 / High Profile 3.2
Audio: English / DTS-HD Master Audio / 5.1 / 48 kHz / 2943 kbps / 24-bit (DTS Core: 5.1 / 48 kHz / 1509 kbps / 24-bit)
Audio: Czech / Dolby Digital Audio / 5.1 / 48 kHz / 640 kbps
Audio: Hungarian / Dolby Digital Audio / 5.1 / 48 kHz / 640 kbps
Audio: Polish / Dolby Digital Audio / 5.1 / 48 kHz / 640 kbps
Audio: Russian / Dolby Digital Audio / 5.1 / 48 kHz / 640 kbps
Audio: Turkish / Dolby Digital Audio / 5.1 / 48 kHz / 640 kbps
Audio: English / DTS Express / 2.0 / 48 kHz / 96 kbps / 24-bit
* Subtitle: English / 23,457 kbps
Subtitle: English / 38,049 kbps
* Subtitle: Arabic / 11,573 kbps
* Subtitle: Bulgarian / 20,654 kbps
* Subtitle: Croatian / 20,733 kbps
* Subtitle: Czech / 20,375 kbps
* Subtitle: Estonian / 21,419 kbps
* Subtitle: Greek / 21,835 kbps
* Subtitle: Hebrew / 17,195 kbps
* Subtitle: Hindi / 21,373 kbps
* Subtitle: Hungarian / 18,149 kbps
* Subtitle: Icelandic / 22,266 kbps
* Subtitle: Lithuanian / 21,809 kbps
* Subtitle: Polish / 16,889 kbps
* Subtitle: Romanian / 21,920 kbps
* Subtitle: Russian / 0,111 kbps
* Subtitle: Serbian / 20,631 kbps
* Subtitle: Slovak / 20,116 kbps
* Subtitle: Slovenian / 19,256 kbps
* Subtitle: Turkish / 21,255 kbps
* Subtitle: Ukrainian / 19,464 kbps
********************
PLAYLIST: 00002.MPLS
********************
Код:
Total Video
Title Codec Length Movie Size Disc Size Bitrate Bitrate Main Audio Track Secondary Audio Track
----- ------ ------- -------------- -------------- ------- ------- ------------------ ---------------------
00002.MPLS MPEG-2 0:23:43 3 357 542 400 37 375 063 542 18,87 17,72 DD AC3 2.0 192Kbps
Код:
DISC INFO:
Disc Title:
Disc Size: 37 375 063 542 bytes
Protection: AACS
BD-Java: Yes
BDInfo: 0.5.3
PLAYLIST REPORT:
Name: 00002.MPLS
Length: 0:23:43 (h:m:s)
Size: 3 357 542 400 bytes
Total Bitrate: 18,87 Mbps
VIDEO:
Codec Bitrate Description
----- ------- -----------
MPEG-2 Video 17723 kbps 1080p / 23,976 fps / 16:9
AUDIO:
Codec Language Bitrate Description
----- -------- ------- -----------
Dolby Digital Audio English 192 kbps 2.0 / 48 kHz / 192 kbps
SUBTITLES:
Codec Language Bitrate Description
----- -------- ------- -----------
Presentation Graphics English 59,368 kbps
FILES:
Name Time In Length Size Total Bitrate
---- ------- ------ ---- -------------
00301.M2TS 0:00:00.000 0:23:43.338 3 357 542 400 18 871
CHAPTERS:
Number Time In Length Avg Video Rate Max 1-Sec Rate Max 1-Sec Time Max 5-Sec Rate Max 5-Sec Time Max 10Sec Rate Max 10Sec Time Avg Frame Size Max Frame Size Max Frame Time
------ ------- ------ -------------- -------------- -------------- -------------- -------------- -------------- -------------- -------------- -------------- --------------
1 0:00:00.000 0:23:43.338 17 723 kbps 39 054 kbps 00:00:40.790 30 083 kbps 00:00:43.460 28 173 kbps 00:00:38.872 92 399 bytes 705 138 bytes 00:04:25.098
STREAM DIAGNOSTICS:
File PID Type Codec Language Seconds Bitrate Bytes Packets
---- --- ---- ----- -------- -------------- -------------- ------------- -----
00301.M2TS 4113 (0x1011) 0x02 MPEG-2 1423,172 17 725 3 153 218 618 17 156 857
00301.M2TS 4352 (0x1100) 0x81 AC3 eng (English) 1423,172 192 34 160 640 222 400
00301.M2TS 4608 (0x1200) 0x90 PGS eng (English) 1423,172 59 10 562 624 60 228
QUICK SUMMARY:
Disc Title:
Disc Size: 37 375 063 542 bytes
Protection: AACS
BD-Java: Yes
Playlist: 00002.MPLS
Size: 3 357 542 400 bytes
Length: 0:23:43
Total Bitrate: 18,87 Mbps
Video: MPEG-2 Video / 17723 kbps / 1080p / 23,976 fps / 16:9
Audio: English / Dolby Digital Audio / 2.0 / 48 kHz / 192 kbps
Subtitle: English / 59,368 kbps
********************
PLAYLIST: 00003.MPLS
********************
Код:
Total Video
Title Codec Length Movie Size Disc Size Bitrate Bitrate Main Audio Track Secondary Audio Track
----- ------ ------- -------------- -------------- ------- ------- ------------------ ---------------------
00003.MPLS MPEG-2 0:11:32 1 621 764 096 37 375 063 542 18,74 17,60 DD AC3 2.0 192Kbps
Код:
DISC INFO:
Disc Title:
Disc Size: 37 375 063 542 bytes
Protection: AACS
BD-Java: Yes
BDInfo: 0.5.3
PLAYLIST REPORT:
Name: 00003.MPLS
Length: 0:11:32 (h:m:s)
Size: 1 621 764 096 bytes
Total Bitrate: 18,74 Mbps
VIDEO:
Codec Bitrate Description
----- ------- -----------
MPEG-2 Video 17597 kbps 1080p / 23,976 fps / 16:9
AUDIO:
Codec Language Bitrate Description
----- -------- ------- -----------
Dolby Digital Audio English 192 kbps 2.0 / 48 kHz / 192 kbps
SUBTITLES:
Codec Language Bitrate Description
----- -------- ------- -----------
Presentation Graphics English 60,822 kbps
FILES:
Name Time In Length Size Total Bitrate
---- ------- ------ ---- -------------
00302.M2TS 0:00:00.000 0:11:32.274 1 621 764 096 18 741
CHAPTERS:
Number Time In Length Avg Video Rate Max 1-Sec Rate Max 1-Sec Time Max 5-Sec Rate Max 5-Sec Time Max 10Sec Rate Max 10Sec Time Avg Frame Size Max Frame Size Max Frame Time
------ ------- ------ -------------- -------------- -------------- -------------- -------------- -------------- -------------- -------------- -------------- --------------
1 0:00:00.000 0:11:32.274 17 597 kbps 33 644 kbps 00:05:23.740 25 950 kbps 00:11:20.179 22 683 kbps 00:00:33.324 91 742 bytes 740 060 bytes 00:01:24.000
STREAM DIAGNOSTICS:
File PID Type Codec Language Seconds Bitrate Bytes Packets
---- --- ---- ----- -------- -------------- -------------- ------------- -----
00302.M2TS 4113 (0x1011) 0x02 MPEG-2 692,192 17 599 1 522 731 656 8 285 321
00302.M2TS 4352 (0x1100) 0x81 AC3 eng (English) 692,192 192 16 614 912 108 170
00302.M2TS 4608 (0x1200) 0x90 PGS eng (English) 692,192 61 5 263 228 29 971
QUICK SUMMARY:
Disc Title:
Disc Size: 37 375 063 542 bytes
Protection: AACS
BD-Java: Yes
Playlist: 00003.MPLS
Size: 1 621 764 096 bytes
Length: 0:11:32
Total Bitrate: 18,74 Mbps
Video: MPEG-2 Video / 17597 kbps / 1080p / 23,976 fps / 16:9
Audio: English / Dolby Digital Audio / 2.0 / 48 kHz / 192 kbps
Subtitle: English / 60,822 kbps
********************
PLAYLIST: 00004.MPLS
********************
Код:
Total Video
Title Codec Length Movie Size Disc Size Bitrate Bitrate Main Audio Track Secondary Audio Track
----- ------ ------- -------------- -------------- ------- ------- ------------------ ---------------------
00004.MPLS MPEG-2 0:10:57 1 526 913 024 37 375 063 542 18,59 17,45 DD AC3 2.0 192Kbps
Код:
DISC INFO:
Disc Title:
Disc Size: 37 375 063 542 bytes
Protection: AACS
BD-Java: Yes
BDInfo: 0.5.3
PLAYLIST REPORT:
Name: 00004.MPLS
Length: 0:10:57 (h:m:s)
Size: 1 526 913 024 bytes
Total Bitrate: 18,59 Mbps
VIDEO:
Codec Bitrate Description
----- ------- -----------
MPEG-2 Video 17448 kbps 1080p / 23,976 fps / 16:9
AUDIO:
Codec Language Bitrate Description
----- -------- ------- -----------
Dolby Digital Audio English 192 kbps 2.0 / 48 kHz / 192 kbps
SUBTITLES:
Codec Language Bitrate Description
----- -------- ------- -----------
Presentation Graphics English 66,258 kbps
FILES:
Name Time In Length Size Total Bitrate
---- ------- ------ ---- -------------
00303.M2TS 0:00:00.000 0:10:57.031 1 526 913 024 18 592
CHAPTERS:
Number Time In Length Avg Video Rate Max 1-Sec Rate Max 1-Sec Time Max 5-Sec Rate Max 5-Sec Time Max 10Sec Rate Max 10Sec Time Avg Frame Size Max Frame Size Max Frame Time
------ ------- ------ -------------- -------------- -------------- -------------- -------------- -------------- -------------- -------------- -------------- --------------
1 0:00:00.000 0:10:57.031 17 448 kbps 40 831 kbps 00:10:22.997 28 805 kbps 00:10:19.035 23 157 kbps 00:10:16.449 90 966 bytes 704 191 bytes 00:10:23.539
STREAM DIAGNOSTICS:
File PID Type Codec Language Seconds Bitrate Bytes Packets
---- --- ---- ----- -------- -------------- -------------- ------------- -----
00303.M2TS 4113 (0x1011) 0x02 MPEG-2 656,906 17 451 1 432 993 806 7 797 135
00303.M2TS 4352 (0x1100) 0x81 AC3 eng (English) 656,906 192 15 769 344 102 665
00303.M2TS 4608 (0x1200) 0x90 PGS eng (English) 656,906 66 5 441 695 30 842
QUICK SUMMARY:
Disc Title:
Disc Size: 37 375 063 542 bytes
Protection: AACS
BD-Java: Yes
Playlist: 00004.MPLS
Size: 1 526 913 024 bytes
Length: 0:10:57
Total Bitrate: 18,59 Mbps
Video: MPEG-2 Video / 17448 kbps / 1080p / 23,976 fps / 16:9
Audio: English / Dolby Digital Audio / 2.0 / 48 kHz / 192 kbps
Subtitle: English / 66,258 kbps
********************
PLAYLIST: 00016.MPLS
********************
Код:
Total Video
Title Codec Length Movie Size Disc Size Bitrate Bitrate Main Audio Track Secondary Audio Track
----- ------ ------- -------------- -------------- ------- ------- ------------------ ---------------------
00016.MPLS MPEG-2 0:02:25 375 146 496 37 375 063 542 20,56 18,95 DD AC3 5.1 640Kbps
Код:
DISC INFO:
Disc Title:
Disc Size: 37 375 063 542 bytes
Protection: AACS
BD-Java: Yes
BDInfo: 0.5.3
PLAYLIST REPORT:
Name: 00016.MPLS
Length: 0:02:25 (h:m:s)
Size: 375 146 496 bytes
Total Bitrate: 20,56 Mbps
VIDEO:
Codec Bitrate Description
----- ------- -----------
MPEG-2 Video 18947 kbps 1080p / 23,976 fps / 16:9
AUDIO:
Codec Language Bitrate Description
----- -------- ------- -----------
Dolby Digital Audio English 640 kbps 5.1 / 48 kHz / 640 kbps
FILES:
Name Time In Length Size Total Bitrate
---- ------- ------ ---- -------------
00116.M2TS 0:00:00.000 0:02:25.937 375 146 496 20 565
CHAPTERS:
Number Time In Length Avg Video Rate Max 1-Sec Rate Max 1-Sec Time Max 5-Sec Rate Max 5-Sec Time Max 10Sec Rate Max 10Sec Time Avg Frame Size Max Frame Size Max Frame Time
------ ------- ------ -------------- -------------- -------------- -------------- -------------- -------------- -------------- -------------- -------------- --------------
1 0:00:00.000 0:02:25.937 18 947 kbps 38 271 kbps 00:00:35.160 29 097 kbps 00:00:32.282 24 828 kbps 00:00:34.284 98 783 bytes 559 258 bytes 00:00:07.924
STREAM DIAGNOSTICS:
File PID Type Codec Language Seconds Bitrate Bytes Packets
---- --- ---- ----- -------- -------------- -------------- ------------- -----
00116.M2TS 4113 (0x1011) 0x02 MPEG-2 145,771 18 969 345 640 268 1 880 544
00116.M2TS 4352 (0x1100) 0x81 AC3 eng (English) 145,771 641 11 676 160 68 415
QUICK SUMMARY:
Disc Title:
Disc Size: 37 375 063 542 bytes
Protection: AACS
BD-Java: Yes
Playlist: 00016.MPLS
Size: 375 146 496 bytes
Length: 0:02:25
Total Bitrate: 20,56 Mbps
Video: MPEG-2 Video / 18947 kbps / 1080p / 23,976 fps / 16:9
Audio: English / Dolby Digital Audio / 5.1 / 48 kHz / 640 kbps
********************
PLAYLIST: 00017.MPLS
********************
Код:
Total Video
Title Codec Length Movie Size Disc Size Bitrate Bitrate Main Audio Track Secondary Audio Track
----- ------ ------- -------------- -------------- ------- ------- ------------------ ---------------------
00017.MPLS MPEG-2 0:02:05 401 160 192 37 375 063 542 25,60 23,77 DD AC3 5.1 640Kbps
Код:
DISC INFO:
Disc Title:
Disc Size: 37 375 063 542 bytes
Protection: AACS
BD-Java: Yes
BDInfo: 0.5.3
PLAYLIST REPORT:
Name: 00017.MPLS
Length: 0:02:05 (h:m:s)
Size: 401 160 192 bytes
Total Bitrate: 25,60 Mbps
VIDEO:
Codec Bitrate Description
----- ------- -----------
MPEG-2 Video 23770 kbps 1080p / 23,976 fps / 16:9
AUDIO:
Codec Language Bitrate Description
----- -------- ------- -----------
Dolby Digital Audio English 640 kbps 5.1 / 48 kHz / 640 kbps
FILES:
Name Time In Length Size Total Bitrate
---- ------- ------ ---- -------------
00117.M2TS 0:00:00.000 0:02:05.375 401 160 192 25 597
CHAPTERS:
Number Time In Length Avg Video Rate Max 1-Sec Rate Max 1-Sec Time Max 5-Sec Rate Max 5-Sec Time Max 10Sec Rate Max 10Sec Time Avg Frame Size Max Frame Size Max Frame Time
------ ------- ------ -------------- -------------- -------------- -------------- -------------- -------------- -------------- -------------- -------------- --------------
1 0:00:00.000 0:02:05.375 23 770 kbps 40 219 kbps 00:00:26.526 33 205 kbps 00:00:55.805 29 846 kbps 00:00:26.276 123 926 bytes 680 270 bytes 00:02:05.041
STREAM DIAGNOSTICS:
File PID Type Codec Language Seconds Bitrate Bytes Packets
---- --- ---- ----- -------- -------------- -------------- ------------- -----
00117.M2TS 4113 (0x1011) 0x02 MPEG-2 125,250 23 794 372 522 019 2 026 367
00117.M2TS 4352 (0x1100) 0x81 AC3 eng (English) 125,250 641 10 030 080 58 770
QUICK SUMMARY:
Disc Title:
Disc Size: 37 375 063 542 bytes
Protection: AACS
BD-Java: Yes
Playlist: 00017.MPLS
Size: 401 160 192 bytes
Length: 0:02:05
Total Bitrate: 25,60 Mbps
Video: MPEG-2 Video / 23770 kbps / 1080p / 23,976 fps / 16:9
Audio: English / Dolby Digital Audio / 5.1 / 48 kHz / 640 kbps
********************
PLAYLIST: 00015.MPLS
********************
Код:
Total Video
Title Codec Length Movie Size Disc Size Bitrate Bitrate Main Audio Track Secondary Audio Track
----- ------ ------- -------------- -------------- ------- ------- ------------------ ---------------------
00015.MPLS MPEG-2 0:02:01 275 048 448 37 375 063 542 18,15 16,64 DD AC3 5.1 640Kbps
Код:
DISC INFO:
Disc Title:
Disc Size: 37 375 063 542 bytes
Protection: AACS
BD-Java: Yes
BDInfo: 0.5.3
PLAYLIST REPORT:
Name: 00015.MPLS
Length: 0:02:01 (h:m:s)
Size: 275 048 448 bytes
Total Bitrate: 18,15 Mbps
VIDEO:
Codec Bitrate Description
----- ------- -----------
MPEG-2 Video 16638 kbps 1080p / 23,976 fps / 16:9
AUDIO:
Codec Language Bitrate Description
----- -------- ------- -----------
Dolby Digital Audio English 640 kbps 5.1 / 48 kHz / 640 kbps
FILES:
Name Time In Length Size Total Bitrate
---- ------- ------ ---- -------------
00115.M2TS 0:00:00.000 0:02:01.204 275 048 448 18 154
CHAPTERS:
Number Time In Length Avg Video Rate Max 1-Sec Rate Max 1-Sec Time Max 5-Sec Rate Max 5-Sec Time Max 10Sec Rate Max 10Sec Time Avg Frame Size Max Frame Size Max Frame Time
------ ------- ------ -------------- -------------- -------------- -------------- -------------- -------------- -------------- -------------- -------------- --------------
1 0:00:00.000 0:02:01.204 16 638 kbps 30 188 kbps 00:00:29.904 21 184 kbps 00:01:15.241 19 806 kbps 00:01:15.492 86 741 bytes 613 289 bytes 00:00:59.851
STREAM DIAGNOSTICS:
File PID Type Codec Language Seconds Bitrate Bytes Packets
---- --- ---- ----- -------- -------------- -------------- ------------- -----
00115.M2TS 4113 (0x1011) 0x02 MPEG-2 121,121 16 649 252 069 778 1 371 639
00115.M2TS 4352 (0x1100) 0x81 AC3 eng (English) 121,121 641 9 697 280 56 820
QUICK SUMMARY:
Disc Title:
Disc Size: 37 375 063 542 bytes
Protection: AACS
BD-Java: Yes
Playlist: 00015.MPLS
Size: 275 048 448 bytes
Length: 0:02:01
Total Bitrate: 18,15 Mbps
Video: MPEG-2 Video / 16638 kbps / 1080p / 23,976 fps / 16:9
Audio: English / Dolby Digital Audio / 5.1 / 48 kHz / 640 kbps
********************
PLAYLIST: 00014.MPLS
********************
Код:
Total Video
Title Codec Length Movie Size Disc Size Bitrate Bitrate Main Audio Track Secondary Audio Track
----- ------ ------- -------------- -------------- ------- ------- ------------------ ---------------------
00014.MPLS MPEG-2 0:01:56 270 262 272 37 375 063 542 18,49 16,96 DD AC3 5.1 640Kbps
Код:
DISC INFO:
Disc Title:
Disc Size: 37 375 063 542 bytes
Protection: AACS
BD-Java: Yes
BDInfo: 0.5.3
PLAYLIST REPORT:
Name: 00014.MPLS
Length: 0:01:56 (h:m:s)
Size: 270 262 272 bytes
Total Bitrate: 18,49 Mbps
VIDEO:
Codec Bitrate Description
----- ------- -----------
MPEG-2 Video 16963 kbps 1080p / 23,976 fps / 16:9
AUDIO:
Codec Language Bitrate Description
----- -------- ------- -----------
Dolby Digital Audio English 640 kbps 5.1 / 48 kHz / 640 kbps
FILES:
Name Time In Length Size Total Bitrate
---- ------- ------ ---- -------------
00114.M2TS 0:00:00.000 0:01:56.908 270 262 272 18 494
CHAPTERS:
Number Time In Length Avg Video Rate Max 1-Sec Rate Max 1-Sec Time Max 5-Sec Rate Max 5-Sec Time Max 10Sec Rate Max 10Sec Time Avg Frame Size Max Frame Size Max Frame Time
------ ------- ------ -------------- -------------- -------------- -------------- -------------- -------------- -------------- -------------- -------------- --------------
1 0:00:00.000 0:01:56.908 16 963 kbps 28 061 kbps 00:01:45.772 22 811 kbps 00:00:07.424 21 057 kbps 00:01:37.847 88 436 bytes 569 057 bytes 00:00:32.198
STREAM DIAGNOSTICS:
File PID Type Codec Language Seconds Bitrate Bytes Packets
---- --- ---- ----- -------- -------------- -------------- ------------- -----
00114.M2TS 4113 (0x1011) 0x02 MPEG-2 116,742 16 987 247 886 475 1 348 837
00114.M2TS 4352 (0x1100) 0x81 AC3 eng (English) 116,742 641 9 354 240 54 810
QUICK SUMMARY:
Disc Title:
Disc Size: 37 375 063 542 bytes
Protection: AACS
BD-Java: Yes
Playlist: 00014.MPLS
Size: 270 262 272 bytes
Length: 0:01:56
Total Bitrate: 18,49 Mbps
Video: MPEG-2 Video / 16963 kbps / 1080p / 23,976 fps / 16:9
Audio: English / Dolby Digital Audio / 5.1 / 48 kHz / 640 kbps
********************
PLAYLIST: 00013.MPLS
********************
Код:
Total Video
Title Codec Length Movie Size Disc Size Bitrate Bitrate Main Audio Track Secondary Audio Track
----- ------ ------- -------------- -------------- ------- ------- ------------------ ---------------------
00013.MPLS MPEG-2 0:01:40 315 635 712 37 375 063 542 25,09 23,28 DD AC3 5.1 640Kbps
Код:
DISC INFO:
Disc Title:
Disc Size: 37 375 063 542 bytes
Protection: AACS
BD-Java: Yes
BDInfo: 0.5.3
PLAYLIST REPORT:
Name: 00013.MPLS
Length: 0:01:40 (h:m:s)
Size: 315 635 712 bytes
Total Bitrate: 25,09 Mbps
VIDEO:
Codec Bitrate Description
----- ------- -----------
MPEG-2 Video 23284 kbps 1080p / 23,976 fps / 16:9
AUDIO:
Codec Language Bitrate Description
----- -------- ------- -----------
Dolby Digital Audio English 640 kbps 5.1 / 48 kHz / 640 kbps
FILES:
Name Time In Length Size Total Bitrate
---- ------- ------ ---- -------------
00113.M2TS 0:00:00.000 0:01:40.642 315 635 712 25 090
CHAPTERS:
Number Time In Length Avg Video Rate Max 1-Sec Rate Max 1-Sec Time Max 5-Sec Rate Max 5-Sec Time Max 10Sec Rate Max 10Sec Time Avg Frame Size Max Frame Size Max Frame Time
------ ------- ------ -------------- -------------- -------------- -------------- -------------- -------------- -------------- -------------- -------------- --------------
1 0:00:00.000 0:01:40.642 23 284 kbps 37 527 kbps 00:01:28.338 29 666 kbps 00:00:58.933 28 171 kbps 00:00:59.809 121 390 bytes 670 994 bytes 00:00:02.919
STREAM DIAGNOSTICS:
File PID Type Codec Language Seconds Bitrate Bytes Packets
---- --- ---- ----- -------- -------------- -------------- ------------- -----
00113.M2TS 4113 (0x1011) 0x02 MPEG-2 100,475 23 322 292 913 871 1 593 343
00113.M2TS 4352 (0x1100) 0x81 AC3 eng (English) 100,475 641 8 053 760 47 190
QUICK SUMMARY:
Disc Title:
Disc Size: 37 375 063 542 bytes
Protection: AACS
BD-Java: Yes
Playlist: 00013.MPLS
Size: 315 635 712 bytes
Length: 0:01:40
Total Bitrate: 25,09 Mbps
Video: MPEG-2 Video / 23284 kbps / 1080p / 23,976 fps / 16:9
Audio: English / Dolby Digital Audio / 5.1 / 48 kHz / 640 kbps
********************
PLAYLIST: 00012.MPLS
********************
Код:
Total Video
Title Codec Length Movie Size Disc Size Bitrate Bitrate Main Audio Track Secondary Audio Track
----- ------ ------- -------------- -------------- ------- ------- ------------------ ---------------------
00012.MPLS MPEG-2 0:01:08 203 624 448 37 375 063 542 23,63 21,88 DD AC3 5.1 640Kbps
Код:
DISC INFO:
Disc Title:
Disc Size: 37 375 063 542 bytes
Protection: AACS
BD-Java: Yes
BDInfo: 0.5.3
PLAYLIST REPORT:
Name: 00012.MPLS
Length: 0:01:08 (h:m:s)
Size: 203 624 448 bytes
Total Bitrate: 23,63 Mbps
VIDEO:
Codec Bitrate Description
----- ------- -----------
MPEG-2 Video 21883 kbps 1080p / 23,976 fps / 16:9
AUDIO:
Codec Language Bitrate Description
----- -------- ------- -----------
Dolby Digital Audio English 640 kbps 5.1 / 48 kHz / 640 kbps
FILES:
Name Time In Length Size Total Bitrate
---- ------- ------ ---- -------------
00112.M2TS 0:00:00.000 0:01:08.943 203 624 448 23 628
CHAPTERS:
Number Time In Length Avg Video Rate Max 1-Sec Rate Max 1-Sec Time Max 5-Sec Rate Max 5-Sec Time Max 10Sec Rate Max 10Sec Time Avg Frame Size Max Frame Size Max Frame Time
------ ------- ------ -------------- -------------- -------------- -------------- -------------- -------------- -------------- -------------- -------------- --------------
1 0:00:00.000 0:01:08.943 21 883 kbps 33 671 kbps 00:00:07.465 28 379 kbps 00:00:43.001 27 817 kbps 00:00:37.996 114 086 bytes 680 271 bytes 00:01:01.478
STREAM DIAGNOSTICS:
File PID Type Codec Language Seconds Bitrate Bytes Packets
---- --- ---- ----- -------- -------------- -------------- ------------- -----
00112.M2TS 4113 (0x1011) 0x02 MPEG-2 68,819 21 922 188 583 581 1 025 885
00112.M2TS 4352 (0x1100) 0x81 AC3 eng (English) 68,819 641 5 516 800 32 325
QUICK SUMMARY:
Disc Title:
Disc Size: 37 375 063 542 bytes
Protection: AACS
BD-Java: Yes
Playlist: 00012.MPLS
Size: 203 624 448 bytes
Length: 0:01:08
Total Bitrate: 23,63 Mbps
Video: MPEG-2 Video / 21883 kbps / 1080p / 23,976 fps / 16:9
Audio: English / Dolby Digital Audio / 5.1 / 48 kHz / 640 kbps
********************
PLAYLIST: 00098.MPLS
********************
Код:
Total Video
Title Codec Length Movie Size Disc Size Bitrate Bitrate Main Audio Track Secondary Audio Track
----- ------ ------- -------------- -------------- ------- ------- ------------------ ---------------------
00098.MPLS MPEG-2 0:01:03 252 911 616 37 375 063 542 31,77 28,61 LPCM 2.0 1536Kbps (48kHz/16-bit)
Код:
DISC INFO:
Disc Title:
Disc Size: 37 375 063 542 bytes
Protection: AACS
BD-Java: Yes
BDInfo: 0.5.3
PLAYLIST REPORT:
Name: 00098.MPLS
Length: 0:01:03 (h:m:s)
Size: 252 911 616 bytes
Total Bitrate: 31,77 Mbps
VIDEO:
Codec Bitrate Description
----- ------- -----------
MPEG-2 Video 28607 kbps 1080p / 23,976 fps / 16:9
AUDIO:
Codec Language Bitrate Description
----- -------- ------- -----------
LPCM Audio English 1536 kbps 2.0 / 48 kHz / 1536 kbps / 16-bit
FILES:
Name Time In Length Size Total Bitrate
---- ------- ------ ---- -------------
00022.M2TS 0:00:00.000 0:01:03.688 252 911 616 31 769
CHAPTERS:
Number Time In Length Avg Video Rate Max 1-Sec Rate Max 1-Sec Time Max 5-Sec Rate Max 5-Sec Time Max 10Sec Rate Max 10Sec Time Avg Frame Size Max Frame Size Max Frame Time
------ ------- ------ -------------- -------------- -------------- -------------- -------------- -------------- -------------- -------------- -------------- --------------
1 0:00:00.000 0:01:03.688 28 607 kbps 35 054 kbps 00:00:47.297 33 017 kbps 00:00:45.795 31 958 kbps 00:00:30.572 149 146 bytes 798 394 bytes 00:00:53.053
STREAM DIAGNOSTICS:
File PID Type Codec Language Seconds Bitrate Bytes Packets
---- --- ---- ----- -------- -------------- -------------- ------------- -----
00022.M2TS 4113 (0x1011) 0x02 MPEG-2 63,522 28 683 227 745 884 1 238 653
00022.M2TS 4352 (0x1100) 0x80 LPCM eng (English) 63,522 1 546 12 279 432 76 428
QUICK SUMMARY:
Disc Title:
Disc Size: 37 375 063 542 bytes
Protection: AACS
BD-Java: Yes
Playlist: 00098.MPLS
Size: 252 911 616 bytes
Length: 0:01:03
Total Bitrate: 31,77 Mbps
Video: MPEG-2 Video / 28607 kbps / 1080p / 23,976 fps / 16:9
Audio: English / LPCM Audio / 2.0 / 48 kHz / 1536 kbps / 16-bit
********************
PLAYLIST: 00011.MPLS
********************
Код:
Total Video
Title Codec Length Movie Size Disc Size Bitrate Bitrate Main Audio Track Secondary Audio Track
----- ------ ------- -------------- -------------- ------- ------- ------------------ ---------------------
00011.MPLS MPEG-2 0:01:00 180 596 736 37 375 063 542 23,87 22,58 DD AC3 2.0 192Kbps
Код:
DISC INFO:
Disc Title:
Disc Size: 37 375 063 542 bytes
Protection: AACS
BD-Java: Yes
BDInfo: 0.5.3
PLAYLIST REPORT:
Name: 00011.MPLS
Length: 0:01:00 (h:m:s)
Size: 180 596 736 bytes
Total Bitrate: 23,87 Mbps
VIDEO:
Codec Bitrate Description
----- ------- -----------
MPEG-2 Video 22578 kbps 1080p / 23,976 fps / 16:9
AUDIO:
Codec Language Bitrate Description
----- -------- ------- -----------
Dolby Digital Audio English 192 kbps 2.0 / 48 kHz / 192 kbps
FILES:
Name Time In Length Size Total Bitrate
---- ------- ------ ---- -------------
00111.M2TS 0:00:00.000 0:01:00.518 180 596 736 23 873
CHAPTERS:
Number Time In Length Avg Video Rate Max 1-Sec Rate Max 1-Sec Time Max 5-Sec Rate Max 5-Sec Time Max 10Sec Rate Max 10Sec Time Avg Frame Size Max Frame Size Max Frame Time
------ ------- ------ -------------- -------------- -------------- -------------- -------------- -------------- -------------- -------------- -------------- --------------
1 0:00:00.000 0:01:00.518 22 578 kbps 36 961 kbps 00:00:48.256 30 851 kbps 00:00:45.837 26 883 kbps 00:00:40.832 117 710 bytes 755 538 bytes 00:00:21.938
STREAM DIAGNOSTICS:
File PID Type Codec Language Seconds Bitrate Bytes Packets
---- --- ---- ----- -------- -------------- -------------- ------------- -----
00111.M2TS 4113 (0x1011) 0x02 MPEG-2 60,435 22 609 170 796 506 929 079
00111.M2TS 4352 (0x1100) 0x81 AC3 eng (English) 60,435 192 1 453 056 9 460
QUICK SUMMARY:
Disc Title:
Disc Size: 37 375 063 542 bytes
Protection: AACS
BD-Java: Yes
Playlist: 00011.MPLS
Size: 180 596 736 bytes
Length: 0:01:00
Total Bitrate: 23,87 Mbps
Video: MPEG-2 Video / 22578 kbps / 1080p / 23,976 fps / 16:9
Audio: English / Dolby Digital Audio / 2.0 / 48 kHz / 192 kbps
********************
PLAYLIST: 00102.MPLS
********************
Код:
Total Video
Title Codec Length Movie Size Disc Size Bitrate Bitrate Main Audio Track Secondary Audio Track
----- ------ ------- -------------- -------------- ------- ------- ------------------ ---------------------
00102.MPLS MPEG-2 0:01:00 118 216 704 37 375 063 542 15,75 15,01
Код:
DISC INFO:
Disc Title:
Disc Size: 37 375 063 542 bytes
Protection: AACS
BD-Java: Yes
BDInfo: 0.5.3
PLAYLIST REPORT:
Name: 00102.MPLS
Length: 0:01:00 (h:m:s)
Size: 118 216 704 bytes
Total Bitrate: 15,75 Mbps
VIDEO:
Codec Bitrate Description
----- ------- -----------
MPEG-2 Video 15013 kbps 1080p / 23,976 fps / 16:9
FILES:
Name Time In Length Size Total Bitrate
---- ------- ------ ---- -------------
00081.M2TS 0:00:00.000 0:01:00.060 118 216 704 15 746
CHAPTERS:
Number Time In Length Avg Video Rate Max 1-Sec Rate Max 1-Sec Time Max 5-Sec Rate Max 5-Sec Time Max 10Sec Rate Max 10Sec Time Avg Frame Size Max Frame Size Max Frame Time
------ ------- ------ -------------- -------------- -------------- -------------- -------------- -------------- -------------- -------------- -------------- --------------
1 0:00:00.000 0:00:15.015 15 272 kbps 19 624 kbps 00:00:13.930 15 925 kbps 00:00:09.926 15 462 kbps 00:00:04.921 79 401 bytes 663 627 bytes 00:00:14.931
2 0:00:15.015 0:00:15.015 14 775 kbps 15 185 kbps 00:00:16.433 15 033 kbps 00:00:16.433 15 017 kbps 00:00:16.433 77 031 bytes 674 417 bytes 00:00:15.432
3 0:00:30.030 0:00:15.015 15 005 kbps 15 922 kbps 00:00:43.960 15 184 kbps 00:00:39.956 15 092 kbps 00:00:34.951 78 232 bytes 253 660 bytes 00:00:44.961
4 0:00:45.045 0:00:15.015 15 001 kbps 15 033 kbps 00:00:45.045 15 007 kbps 00:00:45.045 15 003 kbps 00:00:45.045 78 424 bytes 253 660 bytes 00:00:45.462
STREAM DIAGNOSTICS:
File PID Type Codec Language Seconds Bitrate Bytes Packets
---- --- ---- ----- -------- -------------- -------------- ------------- -----
00081.M2TS 4113 (0x1011) 0x02 MPEG-2 59,935 15 045 112 712 665 613 678
QUICK SUMMARY:
Disc Title:
Disc Size: 37 375 063 542 bytes
Protection: AACS
BD-Java: Yes
Playlist: 00102.MPLS
Size: 118 216 704 bytes
Length: 0:01:00
Total Bitrate: 15,75 Mbps
Video: MPEG-2 Video / 15013 kbps / 1080p / 23,976 fps / 16:9
Для проигрывания на компьютере рекомендуется использовать ArcSoft TotalMedia Theatre 3.0.1.180 Platinum (SimHD / Sim3D plug-in)-Скриншоты:-
Время раздачи: с 18:00 до 24:00

[Цитировать]



Показать сообщения:    

Текущее время: 08-Дек 17:06

Часовой пояс: UTC + 3


Вы не можете начинать темы
Вы не можете отвечать на сообщения
Вы не можете редактировать свои сообщения
Вы не можете удалять свои сообщения
Вы не можете голосовать в опросах
Вы не можете прикреплять файлы к сообщениям
Вы не можете скачивать файлы

!ВНИМАНИЕ!
Сайт не предоставляет электронные версии произведений, а занимается лишь коллекционированием и каталогизацией ссылок, присылаемых и публикуемых на форуме нашими читателями. Если вы являетесь правообладателем какого-либо представленного материала и не желаете, чтобы ссылка на него находилась в нашем каталоге, свяжитесь с нами, и мы незамедлительно удалим ее. Файлы для обмена на трекере предоставлены пользователями сайта, и администрация не несет ответственности за их содержание. Просьба не заливать файлы, защищенные авторскими правами, а также файлы нелегального содержания!