[ Сегодня идет свободное скачивание без начисления Download ]


Статистика раздачи
Нет
 
   
 
Top  
 
 
-Человек из Рио / L'homme de Rio (1963) DVDRip [H.264] -«Parachutes... Alligators... Murderers... Women...You think it's easy? Only For A Great Adventurer Like Me!»- Русское название: Человек из Рио
Оригинальное название: L'homme de Rio
Год выпуска: 1963
Жанр: Боевик, Мелодрама, Комедия, Приключения
Страна: Италия, Франция
Производство: Dear Film Produzione, Les Films Ariane, Les Productions Artistes Associ?s
Описание фильма:
Похищена бесценная индейская статуэтка, а вместе с ней и дочь хозяина сокровища — красавица Аньес. Жених девушки Адриан отправляется в погоню за похитителями. Он не представляет, какие испытания его ждут впереди…
Режиссер: Филипп де Брока
Сценарий: Жан-Поль Раппено, Ариана Мнушкина, Даниэль Буланже
Продюсер: Жорж Дансижер, Александр Мнушкин
Композитор: Жорж Делерю
Актеры: Жан-Поль Бельмондо, Франсуаза Дорлеак, Жан Сервэ, Роже Дюма, Даниэль Секкальди, Милтон Рибейро, Убираси Де Оливейра, Сабу ду Бразил, Адольфо Чели, Симона Ренан
Продолжительность: 01:50:52
Перевод: Дублированный (киностудия им. М.Горького)
Субтитры: Отсутствуют

Дата мировой премьеры: 5 февраля 1964
Видеокодек: MPEG-4 AVC/H.264
Битрейт видео: ~2185 Кбит/сек
Размер кадра: 720x432
Качество видео: DVDRip
Аудиокодек: AC3 2.0
Битрейт аудио: 192 kbps

Знаете ли вы, что...

Франсуаза Дорлеак (Аньес) — замечательная, талантливая актриса, старшая сестра Катрин Денев, еще много ролей могла бы сыграть, но … 26 июня 1967 года близ Ниццы трагически погибла в автокатастрофе. Ее роли и фильмы были такие же трагические и талантливые, как и ее жизнь.
Все трюки Бельмондо выполнял сам. Опасные трюки. Он бесстрашно полз по карнизу небоскреба в Рио, висел на тросе, прикрепленном к вертолету, взбирался на деревья, нырял под катер, который промчался прямо по его голове или трюк с тремя машинами.
Бельмондо отказался от услуг своего друга каскадера, Жиля Деламара. Именно он научил Жан Поля технике выполнения опасных трюков и умению контролировать свой страх. Тот же Деламар привил ему любовь к риску. Безвременная кончина Жиля стала большим ударом для Бедьмондо.
В этом фильме есть уникальный шанс увидеть столицу Бразилии — Бразилиа, когда она еще начинала строиться.

Награды:

Оскар, 1965 год
Номинации (1):
Лучший оригинальный сценарий

MediaInfo:

General
Unique ID : 229020633065742057157515474406881818975 (0xAC4BC4FEA1EAB303BA164901F8F2F95F)
Complete name : H:\Downloads\Человек из Рио.mkv
Format : Matroska
Format version : Version 4 / Version 2
File size : 1.84 GiB
Duration : 1h 50mn
Overall bit rate : 2 379 Kbps
Encoded date : UTC 2013-06-02 21:36:28
Writing application : mkvmerge v6.0.0 ('Coming Up For Air') built on Jan 20 2013 09:52:00
Writing library : libebml v1.3.0 + libmatroska v1.4.0
Video
ID : 1
Format : AVC
Format/Info : Advanced Video Codec
Format profile : High@L3.1
Format settings, CABAC : Yes
Format settings, ReFrames : 8 frames
Codec ID : V_MPEG4/ISO/AVC
Duration : 1h 50mn
Bit rate : 2 185 Kbps
Width : 720 pixels
Height : 432 pixels
Display aspect ratio : 1.667
Frame rate mode : Constant
Frame rate : 25.000 fps
Color space : YUV
Chroma subsampling : 4:2:0
Bit depth : 8 bits
Scan type : Progressive
Bits/(Pixel*Frame) : 0.281
Stream size : 1.66 GiB (90%)
Title : L' Homme de Rio
Writing library : x264 core 125 r2208 d9d2288
Encoding settings : cabac=1 / ref=8 / deblock=1:-1:-1 / analyse=0x3:0x133 / me=umh / subme=9 / psy=1 / psy_rd=1.00:0.10 / mixed_ref=1 / me_range=32 / chroma_me=1 / trellis=2 / 8x8dct=1 / cqm=0 / deadzone=21,11 / fast_pskip=0 / chroma_qp_offset=-3 / threads=6 / lookahead_threads=1 / sliced_threads=0 / nr=0 / decimate=1 / interlaced=0 / bluray_compat=0 / constrained_intra=0 / bframes=3 / b_pyramid=2 / b_adapt=2 / b_bias=0 / direct=3 / weightb=1 / open_gop=0 / weightp=2 / keyint=250 / keyint_min=25 / scenecut=40 / intra_refresh=0 / rc_lookahead=60 / rc=2pass / mbtree=1 / bitrate=2185 / ratetol=1.0 / qcomp=0.60 / qpmin=10 / qpmax=51 / qpstep=4 / cplxblur=20.0 / qblur=0.5 / ip_ratio=1.40 / aq=1:1.00
Language : French
Default : Yes
Forced : No
Audio
ID : 2
Format : AC-3
Format/Info : Audio Coding 3
Mode extension : CM (complete main)
Format settings, Endianness : Big
Codec ID : A_AC3
Duration : 1h 50mn
Bit rate mode : Constant
Bit rate : 192 Kbps
Channel(s) : 2 channels
Channel positions : Front: L R
Sampling rate : 48.0 KHz
Bit depth : 16 bits
Compression mode : Lossy
Stream size : 152 MiB (8%)
Title : Дублированный
Language : Russian
Default : Yes
Forced : No
Скриншоты: Время раздачи: с 13:00 до 01:00 по Москве (выходные круглосуточно), до 10 скачавших

[Цитировать]



Показать сообщения:    

Текущее время: 08-Дек 21:09

Часовой пояс: UTC + 3


Вы не можете начинать темы
Вы не можете отвечать на сообщения
Вы не можете редактировать свои сообщения
Вы не можете удалять свои сообщения
Вы не можете голосовать в опросах
Вы не можете прикреплять файлы к сообщениям
Вы не можете скачивать файлы

!ВНИМАНИЕ!
Сайт не предоставляет электронные версии произведений, а занимается лишь коллекционированием и каталогизацией ссылок, присылаемых и публикуемых на форуме нашими читателями. Если вы являетесь правообладателем какого-либо представленного материала и не желаете, чтобы ссылка на него находилась в нашем каталоге, свяжитесь с нами, и мы незамедлительно удалим ее. Файлы для обмена на трекере предоставлены пользователями сайта, и администрация не несет ответственности за их содержание. Просьба не заливать файлы, защищенные авторскими правами, а также файлы нелегального содержания!