[ Сегодня идет свободное скачивание без начисления Download ]


Статистика раздачи
Нет
 
   
 
Top  
 
 
-VA - MNM Party 2013 vol. 1 (2013)- -Год: 2013
Жанр: House, Disco, Electro, Dubstep, Trance, Synth-pop
Издатель (лейбл): News Records. Made in Belgium.
Номер по каталогу: 541226CD
Продолжительность: 02:39:35-Кодек: FLAC
Тип рипа: tracks + .cue
Битрейт: Lossless

Трек лист CD1:

Трек лист:
01. Netsky & Billie - We Can Only Live Today (Puppy) [03:23]
02. Pitbull & TJR - Don't Stop The Party [03:25]
03. Swedish House Mafia & John Martin - Don't You Worry Child [03:29]
04. Stereo Palma & Regi & Craig David - Our Love (Regi Remix) [03:26]
05. Ben Pearce - What I Might Do [03:13]
06. Infinity Ink - Infinity [03:48]
07. Burns - Lies (Otto Knows Remix) [03:46]
08. Psy - Gangnam Style [03:37]
09. Ne-Yo - Let Me Love You (Until You Learn To Love Yourself) [04:10]
10. Nicki Minaj - Va Va Voom [03:01]
11. Showtek & Justin Prime - Cannonball [03:22]
12. Alesso & Matthew Koma - Years [03:12]
13. Kaskade & Haley - Llove (DaDa Life Remix) [02:59]
14. Franky Rizardo & Roul & Doors - Blackout [03:36]
15. Candi Staton - Hallelujah Anyway (Larse Vocal) [02:58]
16. Alex Gaudino & Taboo - I Don't Wanna Dance [03:02]
17. Dam'Edge & Fatman Scoop & Kat DeLuna - Shake It [03:25]
18. Conor Maynard & Ne-Yo - Turn Around [03:51]
19. 1950 & Ruby Blu - Follow Me [03:18]
20. Carlprit - Fiesta [03:53]
21. Nhan Solo & FML - Easy [03:31]
22. DJ Fresh & RaVaughn - The Feeling [03:24]
23. Justin Bieber & Nicki Minaj - Beauty And A Beat [03:46]
Продолжительность: 01:19:46

Трек лист CD2:

01. Bob Sinclar & Cutee-B & Dollarman & Big Ali & Makedah - Rock This Party (Everybody Dance Now) [03:16]
02. Faithless - Insomnia [03:30]
03. 2 Fabiola - Lift U Up [03:25]
04. Lasgo - Something [03:39]
05. Moloko - Sing It Back [04:30]
06. Black Eyed Peas - The Time (Dirty Bit) [04:11]
07. Felix - Don't You Want Me [03:00]
08. David Guetta & Akon - Sexy Bitch [03:13]
09. Gala - Freed From Desire [03:28]
10. Dr Alban - Sing Hallelujah [03:59]
11. Reel 2 Real & The Mad Stuntman - I Like To Move It [03:48]
12. Technotronic & Felly - Pump Up The Jam [03:24]
13. Ce Ce Peniston - Finally [04:01]
14. Nightcrawlers - Push The Feeling On [03:29]
15. Sash - Encore Une Fois [03:36]
16. Paradisio - Bailando [03:46]
17. Yves LaRock - Rise Up [02:46]
18. Run-DMC & Jason Nevins - It's Like That [04:08]
19. Laurent Wolf & Eric Carter - No Stress [03:18]
20. Cascada - Evacuate The Dancefloor [03:25]
21. Roger Sanchez - Another Chance [03:21]
22. Daan - Housewife [04:26]
Продолжительность: 01:19:49

CD1

Exact Audio Copy V1.0 beta 3 from 29. August 2011
EAC extraction logfile from 7. March 2013, 23:44
Various Artists / MNM Party 2013 Volume 1 (NEWS Records 2013) CD1
Used drive  : hp      CDDVDW TS-L633N   Adapter: 0  ID: 1
Read mode               : Secure
Utilize accurate stream : Yes
Defeat audio cache      : Yes
Make use of C2 pointers : No
Read offset correction                      : 6
Overread into Lead-In and Lead-Out          : No
Fill up missing offset samples with silence : Yes
Delete leading and trailing silent blocks   : No
Null samples used in CRC calculations       : Yes
Used interface                              : Native Win32 interface for Win NT & 2000
Gap handling                                : Appended to previous track
Used output format              : User Defined Encoder
Selected bitrate                : 1024 kBit/s
Quality                         : High
Add ID3 tag                     : No
Command line compressor         : C:\Program Files (x86)\Exact Audio Copy\Flac\flac.exe
Additional command line options : -8 -V -T "ARTIST=%artist%" -T "TITLE=%title%" -T "ALBUM=%albumtitle%" -T "DATE=%year%" -T "TRACKNUMBER=%tracknr%" -T "GENRE=%genre%" -T "PERFORMER=%albuminterpret%" -T "COMPOSER=%composer%" %haslyrics%--tag-from-file=LYRICS="%lyricsfile%"%haslyrics% -T "ALBUMARTIST=%albumartist%" -T "DISCNUMBER=%cdnumber%" -T "TOTALDISCS=%totalcds%" -T "TOTALTRACKS=%numtracks%" -T "COMMENT=%comment%" %source% -o %dest%
TOC of the extracted CD
     Track |   Start  |  Length  | Start sector | End sector
    ---------------------------------------------------------
        1  |  0:00.00 |  3:23.53 |         0    |    15277
        2  |  3:23.53 |  3:25.44 |     15278    |    30696
        3  |  6:49.22 |  3:29.30 |     30697    |    46401
        4  | 10:18.52 |  3:26.12 |     46402    |    61863
        5  | 13:44.64 |  3:13.41 |     61864    |    76379
        6  | 16:58.30 |  3:48.18 |     76380    |    93497
        7  | 20:46.48 |  3:46.71 |     93498    |   110518
        8  | 24:33.44 |  3:37.74 |    110519    |   126867
        9  | 28:11.43 |  4:10.51 |    126868    |   145668
       10  | 32:22.19 |  3:01.17 |    145669    |   159260
       11  | 35:23.36 |  3:22.04 |    159261    |   174414
       12  | 38:45.40 |  3:12.38 |    174415    |   188852
       13  | 41:58.03 |  2:59.01 |    188853    |   202278
       14  | 44:57.04 |  3:36.11 |    202279    |   218489
       15  | 48:33.15 |  2:58.60 |    218490    |   231899
       16  | 51:32.00 |  3:02.09 |    231900    |   245558
       17  | 54:34.09 |  3:25.58 |    245559    |   260991
       18  | 57:59.67 |  3:51.06 |    260992    |   278322
       19  | 61:50.73 |  3:18.16 |    278323    |   293188
       20  | 65:09.14 |  3:53.67 |    293189    |   310730
       21  | 69:03.06 |  3:31.69 |    310731    |   326624
       22  | 72:35.00 |  3:24.59 |    326625    |   341983
       23  | 75:59.59 |  3:46.22 |    341984    |   358955
Track  1
     Filename E:\CDRips\01 - Netsky & Billie - We Can Only Live Today (Puppy) [2012].wav
     Pre-gap length  0:00:02.00
     Peak level 89.2 %
     Extraction speed 2.4 X
     Track quality 100.0 %
     Test CRC 8B2A5143
     Copy CRC 8B2A5143
     Track not present in AccurateRip database
     Copy OK
Track  2
     Filename E:\CDRips\02 - Pitbull & TJR - Don't Stop The Party [2012].wav
     Peak level 98.8 %
     Extraction speed 2.6 X
     Track quality 100.0 %
     Test CRC 8440D014
     Copy CRC 8440D014
     Track not present in AccurateRip database
     Copy OK
Track  3
     Filename E:\CDRips\03 - Swedish House Mafia & John Martin - Don't You Worry Child [2012].wav
     Peak level 100.0 %
     Extraction speed 2.8 X
     Track quality 100.0 %
     Test CRC 1591178D
     Copy CRC 1591178D
     Track not present in AccurateRip database
     Copy OK
Track  4
     Filename E:\CDRips\04 - Stereo Palma & Regi & Craig David - Our Love (Regi Remix) [2012].wav
     Peak level 91.3 %
     Extraction speed 2.3 X
     Track quality 99.9 %
     Test CRC A071D535
     Copy CRC A071D535
     Track not present in AccurateRip database
     Copy OK
Track  5
     Filename E:\CDRips\05 - Ben Pearce - What I Might Do [2012].wav
     Peak level 100.0 %
     Extraction speed 2.3 X
     Track quality 99.9 %
     Test CRC 4405365F
     Copy CRC 4405365F
     Track not present in AccurateRip database
     Copy OK
Track  6
     Filename E:\CDRips\06 - Infinity Ink - Infinity [2012].wav
     Peak level 100.0 %
     Extraction speed 3.2 X
     Track quality 100.0 %
     Test CRC 93A4663F
     Copy CRC 93A4663F
     Track not present in AccurateRip database
     Copy OK
Track  7
     Filename E:\CDRips\07 - Burns - Lies (Otto Knows Remix) [2012].wav
     Peak level 81.3 %
     Extraction speed 3.3 X
     Track quality 100.0 %
     Test CRC 3BD6C024
     Copy CRC 3BD6C024
     Track not present in AccurateRip database
     Copy OK
Track  8
     Filename E:\CDRips\08 - Psy - Gangnam Style [2012].wav
     Peak level 100.0 %
     Extraction speed 3.4 X
     Track quality 100.0 %
     Test CRC 58F98201
     Copy CRC 58F98201
     Track not present in AccurateRip database
     Copy OK
Track  9
     Filename E:\CDRips\09 - Ne-Yo - Let Me Love You (Until You Learn To Love Yourself) [2012].wav
     Peak level 100.0 %
     Extraction speed 3.0 X
     Track quality 99.9 %
     Test CRC A33A6A2F
     Copy CRC A33A6A2F
     Track not present in AccurateRip database
     Copy OK
Track 10
     Filename E:\CDRips\10 - Nicki Minaj - Va Va Voom [2012].wav
     Peak level 93.6 %
     Extraction speed 2.7 X
     Track quality 99.9 %
     Test CRC 7C656B6C
     Copy CRC 7C656B6C
     Track not present in AccurateRip database
     Copy OK
Track 11
     Filename E:\CDRips\11 - Showtek & Justin Prime - Cannonball [2012].wav
     Peak level 100.0 %
     Extraction speed 3.7 X
     Track quality 100.0 %
     Test CRC 488E6F9A
     Copy CRC 488E6F9A
     Track not present in AccurateRip database
     Copy OK
Track 12
     Filename E:\CDRips\12 - Alesso & Matthew Koma - Years [2012].wav
     Peak level 100.0 %
     Extraction speed 3.8 X
     Track quality 100.0 %
     Test CRC 52795898
     Copy CRC 52795898
     Track not present in AccurateRip database
     Copy OK
Track 13
     Filename E:\CDRips\13 - Kaskade & Haley - Llove (DaDa Life Remix) [2011].wav
     Peak level 79.5 %
     Extraction speed 3.9 X
     Track quality 100.0 %
     Test CRC F51A0A2B
     Copy CRC F51A0A2B
     Track not present in AccurateRip database
     Copy OK
Track 14
     Filename E:\CDRips\14 - Franky Rizardo & Roul & Doors - Blackout [2012].wav
     Peak level 84.1 %
     Extraction speed 3.2 X
     Track quality 99.9 %
     Test CRC 4C4DCD6A
     Copy CRC 4C4DCD6A
     Track not present in AccurateRip database
     Copy OK
Track 15
     Filename E:\CDRips\15 - Candi Staton - Hallelujah Anyway (Larse Vocal) [2012].wav
     Peak level 100.0 %
     Extraction speed 4.1 X
     Track quality 100.0 %
     Test CRC 51D5B7CC
     Copy CRC 51D5B7CC
     Track not present in AccurateRip database
     Copy OK
Track 16
     Filename E:\CDRips\16 - Alex Gaudino & Taboo - I Don't Wanna Dance [2012].wav
     Peak level 64.9 %
     Extraction speed 4.1 X
     Track quality 100.0 %
     Test CRC D900D9A8
     Copy CRC D900D9A8
     Track not present in AccurateRip database
     Copy OK
Track 17
     Filename E:\CDRips\17 - Dam'Edge & Fatman Scoop & Kat DeLuna - Shake It [2012].wav
     Peak level 81.1 %
     Extraction speed 4.3 X
     Track quality 100.0 %
     Test CRC 3B4645F7
     Copy CRC 3B4645F7
     Track not present in AccurateRip database
     Copy OK
Track 18
     Filename E:\CDRips\18 - Conor Maynard & Ne-Yo - Turn Around [2012].wav
     Peak level 100.0 %
     Extraction speed 3.5 X
     Track quality 99.9 %
     Test CRC 7EC40A7A
     Copy CRC 7EC40A7A
     Track not present in AccurateRip database
     Copy OK
Track 19
     Filename E:\CDRips\19 - 1950 & Ruby Blu - Follow Me [2012].wav
     Peak level 100.0 %
     Extraction speed 3.5 X
     Track quality 99.9 %
     Test CRC 79AC4B6C
     Copy CRC 79AC4B6C
     Track not present in AccurateRip database
     Copy OK
Track 20
     Filename E:\CDRips\20 - Carlprit - Fiesta [2012].wav
     Peak level 99.2 %
     Extraction speed 4.6 X
     Track quality 100.0 %
     Test CRC EBB15C97
     Copy CRC EBB15C97
     Track not present in AccurateRip database
     Copy OK
Track 21
     Filename E:\CDRips\21 - Nhan Solo & FML - Easy [2012].wav
     Peak level 96.6 %
     Extraction speed 4.7 X
     Track quality 100.0 %
     Test CRC EEF33A7B
     Copy CRC EEF33A7B
     Track not present in AccurateRip database
     Copy OK
Track 22
     Filename E:\CDRips\22 - DJ Fresh & RaVaughn - The Feeling [2012].wav
     Peak level 79.5 %
     Extraction speed 4.7 X
     Track quality 100.0 %
     Test CRC BE1C523D
     Copy CRC BE1C523D
     Track not present in AccurateRip database
     Copy OK
Track 23
     Filename E:\CDRips\23 - Justin Bieber & Nicki Minaj - Beauty And A Beat [2012].wav
     Peak level 100.0 %
     Extraction speed 4.9 X
     Track quality 100.0 %
     Test CRC AC2642C6
     Copy CRC AC2642C6
     Track not present in AccurateRip database
     Copy OK
None of the tracks are present in the AccurateRip database
No errors occurred
End of status report
---- CUETools DB Plugin V2.1.3
[CTDB TOCID: 4sOPoYIFuCRSuiVEU1udBUreOLA-] found, Submit result: 4sOPoYIFuCRSuiVEU1udBUreOLA- has been confirmed
[518beec6] (2/2) Accurately ripped
==== Log checksum D329BDB97FBB416F75CCD526F2E0767A7D648BF726A819BE1CED54C9BC79174B ====

CD2

Exact Audio Copy V1.0 beta 3 from 29. August 2011
EAC extraction logfile from 8. March 2013, 0:58
Various Artists / MNM Party 2013 Volume 1 (NEWS Records 2013) CD2
Used drive  : hp      CDDVDW TS-L633N   Adapter: 0  ID: 1
Read mode               : Secure
Utilize accurate stream : Yes
Defeat audio cache      : Yes
Make use of C2 pointers : No
Read offset correction                      : 6
Overread into Lead-In and Lead-Out          : No
Fill up missing offset samples with silence : Yes
Delete leading and trailing silent blocks   : No
Null samples used in CRC calculations       : Yes
Used interface                              : Native Win32 interface for Win NT & 2000
Gap handling                                : Appended to previous track
Used output format              : User Defined Encoder
Selected bitrate                : 1024 kBit/s
Quality                         : High
Add ID3 tag                     : No
Command line compressor         : C:\Program Files (x86)\Exact Audio Copy\Flac\flac.exe
Additional command line options : -8 -V -T "ARTIST=%artist%" -T "TITLE=%title%" -T "ALBUM=%albumtitle%" -T "DATE=%year%" -T "TRACKNUMBER=%tracknr%" -T "GENRE=%genre%" -T "PERFORMER=%albuminterpret%" -T "COMPOSER=%composer%" %haslyrics%--tag-from-file=LYRICS="%lyricsfile%"%haslyrics% -T "ALBUMARTIST=%albumartist%" -T "DISCNUMBER=%cdnumber%" -T "TOTALDISCS=%totalcds%" -T "TOTALTRACKS=%numtracks%" -T "COMMENT=%comment%" %source% -o %dest%
TOC of the extracted CD
     Track |   Start  |  Length  | Start sector | End sector
    ---------------------------------------------------------
        1  |  0:00.00 |  3:16.38 |         0    |    14737
        2  |  3:16.38 |  3:30.15 |     14738    |    30502
        3  |  6:46.53 |  3:25.18 |     30503    |    45895
        4  | 10:11.71 |  3:39.61 |     45896    |    62381
        5  | 13:51.57 |  4:30.17 |     62382    |    82648
        6  | 18:21.74 |  4:11.18 |     82649    |   101491
        7  | 22:33.17 |  3:00.22 |    101492    |   115013
        8  | 25:33.39 |  3:13.25 |    115014    |   129513
        9  | 28:46.64 |  3:28.67 |    129514    |   145180
       10  | 32:15.56 |  3:59.09 |    145181    |   163114
       11  | 36:14.65 |  3:48.03 |    163115    |   180217
       12  | 40:02.68 |  3:24.28 |    180218    |   195545
       13  | 43:27.21 |  4:01.64 |    195546    |   213684
       14  | 47:29.10 |  3:29.55 |    213685    |   229414
       15  | 50:58.65 |  3:36.42 |    229415    |   245656
       16  | 54:35.32 |  3:46.35 |    245657    |   262641
       17  | 58:21.67 |  2:46.53 |    262642    |   275144
       18  | 61:08.45 |  4:08.15 |    275145    |   293759
       19  | 65:16.60 |  3:18.28 |    293760    |   308637
       20  | 68:35.13 |  3:25.65 |    308638    |   324077
       21  | 72:01.03 |  3:21.16 |    324078    |   339168
       22  | 75:22.19 |  4:26.57 |    339169    |   359175
Track  1
     Filename E:\CDRips\01 - Bob Sinclar & Cutee-B & Dollarman & Big Ali & Makedah - Rock This Party (Everybody Dance Now) [2006].wav
     Pre-gap length  0:00:02.00
     Peak level 86.1 %
     Extraction speed 1.8 X
     Track quality 99.9 %
     Test CRC D9821F5B
     Copy CRC D9821F5B
     Track not present in AccurateRip database
     Copy OK
Track  2
     Filename E:\CDRips\02 - Faithless - Insomnia [1995].wav
     Peak level 100.0 %
     Extraction speed 2.5 X
     Track quality 100.0 %
     Test CRC 8DD26966
     Copy CRC 8DD26966
     Track not present in AccurateRip database
     Copy OK
Track  3
     Filename E:\CDRips\03 - 2 Fabiola - Lift U Up [1995].wav
     Peak level 99.1 %
     Extraction speed 2.7 X
     Track quality 100.0 %
     Test CRC E9CB8F61
     Copy CRC E9CB8F61
     Track not present in AccurateRip database
     Copy OK
Track  4
     Filename E:\CDRips\04 - Lasgo - Something [2001].wav
     Peak level 100.0 %
     Extraction speed 2.9 X
     Track quality 100.0 %
     Test CRC D225BB18
     Copy CRC D225BB18
     Track not present in AccurateRip database
     Copy OK
Track  5
     Filename E:\CDRips\05 - Moloko - Sing It Back [1998].wav
     Peak level 95.9 %
     Extraction speed 2.6 X
     Track quality 99.9 %
     Test CRC 9C9A2005
     Copy CRC 9C9A2005
     Track not present in AccurateRip database
     Copy OK
Track  6
     Filename E:\CDRips\06 - Black Eyed Peas - The Time (Dirty Bit) [2010].wav
     Peak level 100.0 %
     Extraction speed 3.3 X
     Track quality 100.0 %
     Test CRC 20488330
     Copy CRC 20488330
     Track not present in AccurateRip database
     Copy OK
Track  7
     Filename E:\CDRips\07 - Felix - Don't You Want Me [1992].wav
     Peak level 100.0 %
     Extraction speed 3.2 X
     Track quality 100.0 %
     Test CRC 3F43D5BA
     Copy CRC 3F43D5BA
     Track not present in AccurateRip database
     Copy OK
Track  8
     Filename E:\CDRips\08 - David Guetta & Akon - Sexy Bitch [2009].wav
     Peak level 90.0 %
     Extraction speed 3.4 X
     Track quality 100.0 %
     Test CRC EF5C2539
     Copy CRC EF5C2539
     Track not present in AccurateRip database
     Copy OK
Track  9
     Filename E:\CDRips\09 - Gala - Freed From Desire [1996].wav
     Peak level 100.0 %
     Extraction speed 3.6 X
     Track quality 100.0 %
     Test CRC 257040DD
     Copy CRC 257040DD
     Track not present in AccurateRip database
     Copy OK
Track 10
     Filename E:\CDRips\10 - Dr Alban - Sing Hallelujah [1992].wav
     Peak level 100.0 %
     Extraction speed 3.8 X
     Track quality 100.0 %
     Test CRC 04644DE6
     Copy CRC 04644DE6
     Track not present in AccurateRip database
     Copy OK
Track 11
     Filename E:\CDRips\11 - Reel 2 Real & The Mad Stuntman - I Like To Move It [1993].wav
     Peak level 100.0 %
     Extraction speed 3.1 X
     Track quality 99.9 %
     Test CRC C65E56A0
     Copy CRC C65E56A0
     Track not present in AccurateRip database
     Copy OK
Track 12
     Filename E:\CDRips\12 - Technotronic & Felly - Pump Up The Jam [1989].wav
     Peak level 100.0 %
     Extraction speed 3.9 X
     Track quality 100.0 %
     Test CRC 3116F12E
     Copy CRC 3116F12E
     Track not present in AccurateRip database
     Copy OK
Track 13
     Filename E:\CDRips\13 - Ce Ce Peniston - Finally [1991].wav
     Peak level 100.0 %
     Extraction speed 4.1 X
     Track quality 100.0 %
     Test CRC 35377AE6
     Copy CRC 35377AE6
     Track not present in AccurateRip database
     Copy OK
Track 14
     Filename E:\CDRips\14 - Nightcrawlers - Push The Feeling On [1992].wav
     Peak level 100.0 %
     Extraction speed 4.1 X
     Track quality 100.0 %
     Test CRC 6898371D
     Copy CRC 6898371D
     Track not present in AccurateRip database
     Copy OK
Track 15
     Filename E:\CDRips\15 - Sash - Encore Une Fois [1996].wav
     Peak level 94.5 %
     Extraction speed 4.3 X
     Track quality 100.0 %
     Test CRC 398B996D
     Copy CRC 398B996D
     Track not present in AccurateRip database
     Copy OK
Track 16
     Filename E:\CDRips\16 - Paradisio - Bailando [1996].wav
     Peak level 100.0 %
     Extraction speed 4.4 X
     Track quality 100.0 %
     Test CRC 1597DDFC
     Copy CRC 1597DDFC
     Track not present in AccurateRip database
     Copy OK
Track 17
     Filename E:\CDRips\17 - Yves LaRock - Rise Up [2007].wav
     Peak level 100.0 %
     Extraction speed 4.2 X
     Track quality 100.0 %
     Test CRC BD393B32
     Copy CRC BD393B32
     Track not present in AccurateRip database
     Copy OK
Track 18
     Filename E:\CDRips\18 - Run-DMC & Jason Nevins - It's Like That [1997].wav
     Peak level 100.0 %
     Extraction speed 4.6 X
     Track quality 100.0 %
     Test CRC 0749789D
     Copy CRC 0749789D
     Track not present in AccurateRip database
     Copy OK
Track 19
     Filename E:\CDRips\19 - Laurent Wolf & Eric Carter - No Stress [2008].wav
     Peak level 100.0 %
     Extraction speed 4.6 X
     Track quality 100.0 %
     Test CRC 3E593380
     Copy CRC 3E593380
     Track not present in AccurateRip database
     Copy OK
Track 20
     Filename E:\CDRips\20 - Cascada - Evacuate The Dancefloor [2009].wav
     Peak level 100.0 %
     Extraction speed 4.7 X
     Track quality 100.0 %
     Test CRC 160C12D1
     Copy CRC 160C12D1
     Track not present in AccurateRip database
     Copy OK
Track 21
     Filename E:\CDRips\21 - Roger Sanchez - Another Chance [2001].wav
     Peak level 98.6 %
     Extraction speed 4.7 X
     Track quality 100.0 %
     Test CRC 3BE8F887
     Copy CRC 3BE8F887
     Track not present in AccurateRip database
     Copy OK
Track 22
     Filename E:\CDRips\22 - Daan - Housewife [2004].wav
     Peak level 98.9 %
     Extraction speed 5.0 X
     Track quality 100.0 %
     Test CRC 3847C73F
     Copy CRC 3847C73F
     Track not present in AccurateRip database
     Copy OK
None of the tracks are present in the AccurateRip database
No errors occurred
End of status report
---- CUETools DB Plugin V2.1.3
[CTDB TOCID: 9FCNdICLicR1yRb8PEGd_nA5Tb4-] found, Submit result: 9FCNdICLicR1yRb8PEGd_nA5Tb4- has been confirmed
[394f13d9] (2/2) Accurately ripped
==== Log checksum CBB9584C913309016DD40C01D6CBCE1956B96E6E0EC75ED76CE6A51CBCC08AEA ====

CD1

-----------------------
DON'T MODIFY THIS FILE
-----------------------
PERFORMER: auCDtect Task Manager, ver. 1.6.0 RC1 build 1.6.0.1
Copyright (c) 2008-2010 y-soft. All rights reserved
http://y-soft.org
ANALYZER: auCDtect: CD records authenticity detector, version 0.8.2
Copyright (c) 2004 Oleg Berngardt. All rights reserved.
Copyright (c) 2004 Alexander Djourik. All rights reserved.
FILE: 23. Justin Bieber & Nicki Minaj - Beauty And A Beat.flac
  Size: 30606511 Hash: ECBB551BDC6BF9190BEE2A2120420794 Accuracy: -m0
  Conclusion: CDDA 100%
  Signature: FF31D0E84FCD8D3BFD83C92472434DE8893053FE
FILE: 22. DJ Fresh & RaVaughn - The Feeling.flac
  Size: 28515993 Hash: 40E3390576B7903A6334D1893259FB09 Accuracy: -m0
  Conclusion: CDDA 100%
  Signature: 1BA1D073702C5955DFD7F944CF72E7190E94FB6A
FILE: 21. Nhan Solo & FML - Easy.flac
  Size: 25755323 Hash: F8CF1314EA3ADE33CA089C58AC6CC820 Accuracy: -m0
  Conclusion: CDDA 87%
  Signature: 5100291DFBB90699E581E695314A82DF37286D76
FILE: 20. Carlprit - Fiesta.flac
  Size: 30842901 Hash: 70B39F32E574EC68A3F374833D2537C9 Accuracy: -m0
  Conclusion: CDDA 100%
  Signature: F88F579485B62B1F0F5F82153B8D02214A1A0F53
FILE: 19. 1950 & Ruby Blu - Follow Me.flac
  Size: 26797157 Hash: 637132F9141129EF5E421A4A9E513600 Accuracy: -m0
  Conclusion: CDDA 100%
  Signature: 92EC27A7D61C88F612A203DC4329B6DFAC24FD27
FILE: 18. Conor Maynard & Ne-Yo - Turn Around.flac
  Size: 29483380 Hash: CD4D1A3C87A2AA1EB75B4FC09E02674E Accuracy: -m0
  Conclusion: CDDA 100%
  Signature: 0E2B9A896B7675DCF8AE96FE358D71B25BB6C730
FILE: 17. Dam'Edge & Fatman Scoop & Kat DeLuna - Shake It.flac
  Size: 28658905 Hash: 9A660904228ED4D85E0CE9169A97821D Accuracy: -m0
  Conclusion: CDDA 100%
  Signature: 7D589C2595E216A3C931D52DDD8AB0EA1F7BA0B4
FILE: 16. Alex Gaudino & Taboo - I Don't Wanna Dance.flac
  Size: 25540836 Hash: FA67411D143CE90E227893B7288F6090 Accuracy: -m0
  Conclusion: CDDA 100%
  Signature: 9A370D5800FAC30FCB69CBA2C982651619B26D78
FILE: 15. Candi Staton - Hallelujah Anyway (Larse Vocal).flac
  Size: 22994128 Hash: 839EA51988B05E07DDC10AEB08885EB1 Accuracy: -m0
  Conclusion: CDDA 100%
  Signature: DA22BAF7050686D936A2CFA67A71444A288D984B
FILE: 14. Franky Rizardo & Roul & Doors - Blackout.flac
  Size: 29500953 Hash: C18B668F23E3D31A3C48F38C2382B0D0 Accuracy: -m0
  Conclusion: CDDA 100%
  Signature: 4A6A5D56E822C523A5819714065AD55C52C2716A
FILE: 13. Kaskade & Haley - Llove (DaDa Life Remix).flac
  Size: 23164166 Hash: 1A3231B9C8B5B60BBB3DE9E966A5BB39 Accuracy: -m0
  Conclusion: CDDA 99%
  Signature: A37E7C8582E6C1544C2CA18B7F75D2AB4D6FFA7C
FILE: 12. Alesso & Matthew Koma - Years.flac
  Size: 26700400 Hash: 85AE8CFFBA33C9F66D52F1AE1EB6ED90 Accuracy: -m0
  Conclusion: CDDA 99%
  Signature: BEAD41652CFBB8F7F05AC9C3CC2ADE38105828D2
FILE: 11. Showtek & Justin Prime - Cannonball.flac
  Size: 26332285 Hash: 85F9E14F176DF8F09F5C367FB6228624 Accuracy: -m0
  Conclusion: CDDA 100%
  Signature: 979CBEDA0C667D2FA3A1C83FCF3369C2113978E5
FILE: 10. Nicki Minaj - Va Va Voom.flac
  Size: 24382662 Hash: ECCA2CDE196C55DCA0A99274591C489B Accuracy: -m0
  Conclusion: CDDA 100%
  Signature: 16225C5EC764F471D2C2A1C872187DD7B2EC7BF2
FILE: 09. Ne-Yo - Let Me Love You (Until You Learn To Love Yourself).flac
  Size: 32548901 Hash: 82555861DE5CD6B4EFC433C210D5689E Accuracy: -m0
  Conclusion: CDDA 100%
  Signature: 7D3C8CAEF7D09D3856A3B0C1DA9BC84CC02601DC
FILE: 08. Psy - Gangnam Style.flac
  Size: 28953585 Hash: E4864140B602B1A670AF1830AA8D930E Accuracy: -m0
  Conclusion: CDDA 100%
  Signature: 27DB6B699441F878018CD49F324A52BCE908FFB9
FILE: 07. Burns - Lies (Otto Knows Remix).flac
  Size: 29398112 Hash: F127AE6D207A1A8EE972DDA80D8BDAA6 Accuracy: -m0
  Conclusion: CDDA 100%
  Signature: BC0EA74CE40A5C2EE8B5E2E72E2774CB53A050C5
FILE: 06. Infinity Ink - Infinity.flac
  Size: 23998506 Hash: BBB6B755D02FF2C735E3AEFD1314154F Accuracy: -m0
  Conclusion: CDDA 100%
  Signature: 2E0612089FE315DF0BDE59CEB2596F5B3ECA79F7
FILE: 05. Ben Pearce - What I Might Do.flac
  Size: 20244109 Hash: 143BFC2FE63222560C12D4C7AEC808AC Accuracy: -m0
  Conclusion: CDDA 87%
  Signature: 94D2BCFF9A0392C14C1B5505009EF2E4989F5EAB
FILE: 04. Stereo Palma & Regi & Craig David - Our Love (Regi Remix).flac
  Size: 28658004 Hash: 371A78D0DC17AEA06DD639E2FDD29BAE Accuracy: -m0
  Conclusion: CDDA 100%
  Signature: 84CE2FBAFFAF69F2C8E3344215806E7F71AC5967
FILE: 03. Swedish House Mafia & John Martin - Don't You Worry Child.flac
  Size: 27782508 Hash: 9C95DA4E5BBAC6EA22CD4E9F147AE0A1 Accuracy: -m0
  Conclusion: CDDA 100%
  Signature: 7EA019EA1FCB8C57E9A68BC086834E133073FBE4
FILE: 02. Pitbull & TJR - Don't Stop The Party.flac
  Size: 27647238 Hash: F09792FF493808D3CF9B6C808E2ECEA6 Accuracy: -m0
  Conclusion: CDDA 100%
  Signature: 84BA9CE31EC41A6500F2A8D703EE2E17E854C0B2
FILE: 01. Netsky & Billie - We Can Only Live Today (Puppy).flac
  Size: 27934480 Hash: 8A22F290129F3E9DBA6FB44A832D64AB Accuracy: -m0
  Conclusion: CDDA 100%
  Signature: D61B04226452AC4D9DC587DEC208279EEA48461C

CD2

-----------------------
DON'T MODIFY THIS FILE
-----------------------
PERFORMER: auCDtect Task Manager, ver. 1.6.0 RC1 build 1.6.0.1
Copyright (c) 2008-2010 y-soft. All rights reserved
http://y-soft.org
ANALYZER: auCDtect: CD records authenticity detector, version 0.8.2
Copyright (c) 2004 Oleg Berngardt. All rights reserved.
Copyright (c) 2004 Alexander Djourik. All rights reserved.
FILE: 22. Daan - Housewife.flac
  Size: 31020183 Hash: A0F1733BEAF75019EFF3022BDE7D3DEC Accuracy: -m0
  Conclusion: CDDA 100%
  Signature: DB0DF142B949E947114818B2DEDE32C13F8C8B75
FILE: 21. Roger Sanchez - Another Chance.flac
  Size: 24929921 Hash: 0F47729ED378C4642999A8BA5B8D50DE Accuracy: -m0
  Conclusion: CDDA 100%
  Signature: 509934D50A6884E8DFFD2BF7EEF752FF7CD88610
FILE: 20. Cascada - Evacuate The Dancefloor.flac
  Size: 27782803 Hash: 7C910BF169D311E42DFF9A04B960949C Accuracy: -m0
  Conclusion: CDDA 100%
  Signature: C4618DCFD91AB7B9516C212E706EF261D6BE1341
FILE: 19. Laurent Wolf & Eric Carter - No Stress.flac
  Size: 25103826 Hash: 8D1FAC00A3410895011FBC03BE9381A7 Accuracy: -m0
  Conclusion: CDDA 100%
  Signature: 79718B790EC40C53C84A5C2DF65279B7BA1BD70E
FILE: 18. Run-DMC & Jason Nevins - It's Like That.flac
  Size: 31524459 Hash: 749EA3EA68E5F4CA517E7C38822A6055 Accuracy: -m0
  Conclusion: CDDA 100%
  Signature: 8C3287A7864440918516FE6E858C3695EFC5B669
FILE: 17. Yves LaRock - Rise Up.flac
  Size: 21557618 Hash: BAC567BE5F68477E2EF11419BCCB3A55 Accuracy: -m0
  Conclusion: MPEG 80%
  Signature: EE0ACBFFB39E78E71A719253F8A28A167C50F7DA
FILE: 16. Paradisio - Bailando.flac
  Size: 30269677 Hash: 1D25FB38748308856D6B4C4D896618FE Accuracy: -m0
  Conclusion: CDDA 100%
  Signature: 8C1331CB7E3456867980BDECF20BDB5618F5A1B5
FILE: 15. Sash - Encore Une Fois.flac
  Size: 28249730 Hash: AA068B8022AB13A892645143B54D9711 Accuracy: -m0
  Conclusion: CDDA 100%
  Signature: D61635661DA294372AA0608B63CC3AC9F45EAA26
FILE: 14. Nightcrawlers - Push The Feeling On.flac
  Size: 26757187 Hash: 0E847AF9B85C706850D81202856738E8 Accuracy: -m0
  Conclusion: CDDA 100%
  Signature: 01F2123ABC81DCC283E4C7B4881A634561D1B43E
FILE: 13. Ce Ce Peniston - Finally.flac
  Size: 32289270 Hash: 38CF9E66C56078900762190C78B90D0B Accuracy: -m0
  Conclusion: CDDA 100%
  Signature: 5359C05EE53EFA64EE1379918CAC0A89E25A71D3
FILE: 12. Technotronic & Felly - Pump Up The Jam.flac
  Size: 26133496 Hash: 4288BFFDCB94DE8E8BC88A34FEF3DF3F Accuracy: -m0
  Conclusion: CDDA 100%
  Signature: 2DD5914FCD2CEE2208ECAC2869F988FD9C29ED77
FILE: 11. Reel 2 Real & The Mad Stuntman - I Like To Move It.flac
  Size: 27137039 Hash: DD9292DED69B1605DFF72B02E7592ACC Accuracy: -m0
  Conclusion: CDDA 100%
  Signature: 5CFAA2B7D9E643B1AB7C6965A424C2474B3E6DA0
FILE: 10. Dr Alban - Sing Hallelujah.flac
  Size: 31206513 Hash: 8EFC328F424F3E7ADFE2E922E2D2FC91 Accuracy: -m0
  Conclusion: CDDA 100%
  Signature: 8564AD0427A8F7CDD23C4D4BE976A02C472A9311
FILE: 09. Gala - Freed From Desire.flac
  Size: 26730073 Hash: 82ED964C096DBA1312952E51D2CAEE51 Accuracy: -m0
  Conclusion: CDDA 99%
  Signature: AE2855EC7575A2BCC1DF51768A46DAB7DF205715
FILE: 08. David Guetta & Akon - Sexy Bitch.flac
  Size: 24213819 Hash: 84BF3A6A684D9877F116736713323052 Accuracy: -m0
  Conclusion: CDDA 100%
  Signature: 5CD9C6E60E09FD995931CFF8FCBE5212EE1A5C4D
FILE: 07. Felix - Don't You Want Me.flac
  Size: 22707442 Hash: A1422E91F86F774613D2DB7343CAD11E Accuracy: -m0
  Conclusion: CDDA 100%
  Signature: 772534AC4C786B2F4D5CB8521257FBC2FBBADCDA
FILE: 06. Black Eyed Peas - The Time (Dirty Bit).flac
  Size: 31390161 Hash: 30E65A73F0F6D092D5BD3872C9DBDEC5 Accuracy: -m0
  Conclusion: CDDA 100%
  Signature: CABBAFF1E97A79005DDBFC0CB08948D627287C38
FILE: 05. Moloko - Sing It Back.flac
  Size: 34715476 Hash: 217E8D72A73C947B0AF32247CE1D8828 Accuracy: -m0
  Conclusion: CDDA 100%
  Signature: 4B829378C63A69E44D0EEB1A53B6395C70CF9C7B
FILE: 04. Lasgo - Something.flac
  Size: 27038482 Hash: 6C7B9BF8EE2CA7B05424046686EA08C5 Accuracy: -m0
  Conclusion: CDDA 99%
  Signature: D23C16A567FC0B2087245A848B22521F35D04F0F
FILE: 03. 2 Fabiola - Lift U Up.flac
  Size: 27786682 Hash: 8E00C2B18193FB4AC408393115DFE8AD Accuracy: -m0
  Conclusion: CDDA 100%
  Signature: 0BB4F697F917E3B2963E28FA5D41470A650B6E36
FILE: 02. Faithless - Insomnia.flac
  Size: 26239751 Hash: 205B672F60543AED90B8F5B5DA51BAF4 Accuracy: -m0
  Conclusion: CDDA 100%
  Signature: B8E7E4BFA4A5AD384E92663810AA6353E25CAF4C
FILE: 01. Bob Sinclar & Cutee-B & Dollarman & Big Ali & Makedah - Rock This Party (Everybody Dance Now).flac
  Size: 26232031 Hash: F8211FB618472CAC7B851505B9FA9728 Accuracy: -m0
  Conclusion: CDDA 100%
  Signature: BF6B4596D0320F3FE36BB3A185E1E9A39208F747

Спектр:

CD1

REM GENRE Dance
REM DATE 2013
REM DISCID 3A12B217
REM COMMENT flacmusic.ru
PERFORMER "Various Artists"
TITLE "MNM Party 2013 vol. 1 | CD1 | flacmusic.ru"
FILE "01. Netsky & Billie - We Can Only Live Today (Puppy).flac" WAVE
  TRACK 01 AUDIO
    TITLE "We Can Only Live Today (Puppy)"
    PERFORMER "Netsky & Billie"
    INDEX 01 00:00:00
FILE "02. Pitbull & TJR - Don't Stop The Party.flac" WAVE
  TRACK 02 AUDIO
    TITLE "Don't Stop The Party"
    PERFORMER "Pitbull & TJR"
    INDEX 01 00:00:00
FILE "03. Swedish House Mafia & John Martin - Don't You Worry Child.flac" WAVE
  TRACK 03 AUDIO
    TITLE "Don't You Worry Child"
    PERFORMER "Swedish House Mafia & John Martin"
    INDEX 01 00:00:00
FILE "04. Stereo Palma & Regi & Craig David - Our Love (Regi Remix).flac" WAVE
  TRACK 04 AUDIO
    TITLE "Our Love (Regi Remix)"
    PERFORMER "Stereo Palma & Regi & Craig David"
    INDEX 01 00:00:00
FILE "05. Ben Pearce - What I Might Do.flac" WAVE
  TRACK 05 AUDIO
    TITLE "What I Might Do"
    PERFORMER "Ben Pearce"
    INDEX 01 00:00:00
FILE "06. Infinity Ink - Infinity.flac" WAVE
  TRACK 06 AUDIO
    TITLE Infinity
    PERFORMER "Infinity Ink"
    INDEX 01 00:00:00
FILE "07. Burns - Lies (Otto Knows Remix).flac" WAVE
  TRACK 07 AUDIO
    TITLE "Lies (Otto Knows Remix)"
    PERFORMER Burns
    INDEX 01 00:00:00
FILE "08. Psy - Gangnam Style.flac" WAVE
  TRACK 08 AUDIO
    TITLE "Gangnam Style"
    PERFORMER Psy
    INDEX 01 00:00:00
FILE "09. Ne-Yo - Let Me Love You (Until You Learn To Love Yourself).flac" WAVE
  TRACK 09 AUDIO
    TITLE "Let Me Love You (Until You Learn To Love Yourself)"
    PERFORMER Ne-Yo
    INDEX 01 00:00:00
FILE "10. Nicki Minaj - Va Va Voom.flac" WAVE
  TRACK 10 AUDIO
    TITLE "Va Va Voom"
    PERFORMER "Nicki Minaj"
    INDEX 01 00:00:00
FILE "11. Showtek & Justin Prime - Cannonball.flac" WAVE
  TRACK 11 AUDIO
    TITLE Cannonball
    PERFORMER "Showtek & Justin Prime"
    INDEX 01 00:00:00
FILE "12. Alesso & Matthew Koma - Years.flac" WAVE
  TRACK 12 AUDIO
    TITLE Years
    PERFORMER "Alesso & Matthew Koma"
    INDEX 01 00:00:00
FILE "13. Kaskade & Haley - Llove (DaDa Life Remix).flac" WAVE
  TRACK 13 AUDIO
    TITLE "Llove (DaDa Life Remix)"
    PERFORMER "Kaskade & Haley"
    INDEX 01 00:00:00
FILE "14. Franky Rizardo & Roul & Doors - Blackout.flac" WAVE
  TRACK 14 AUDIO
    TITLE Blackout
    PERFORMER "Franky Rizardo & Roul & Doors"
    INDEX 01 00:00:00
FILE "15. Candi Staton - Hallelujah Anyway (Larse Vocal).flac" WAVE
  TRACK 15 AUDIO
    TITLE "Hallelujah Anyway (Larse Vocal)"
    PERFORMER "Candi Staton"
    INDEX 01 00:00:00
FILE "16. Alex Gaudino & Taboo - I Don't Wanna Dance.flac" WAVE
  TRACK 16 AUDIO
    TITLE "I Don't Wanna Dance"
    PERFORMER "Alex Gaudino & Taboo"
    INDEX 01 00:00:00
FILE "17. Dam'Edge & Fatman Scoop & Kat DeLuna - Shake It.flac" WAVE
  TRACK 17 AUDIO
    TITLE "Shake It"
    PERFORMER "Dam'Edge & Fatman Scoop & Kat DeLuna"
    INDEX 01 00:00:00
FILE "18. Conor Maynard & Ne-Yo - Turn Around.flac" WAVE
  TRACK 18 AUDIO
    TITLE "Turn Around"
    PERFORMER "Conor Maynard & Ne-Yo"
    INDEX 01 00:00:00
FILE "19. 1950 & Ruby Blu - Follow Me.flac" WAVE
  TRACK 19 AUDIO
    TITLE "Follow Me"
    PERFORMER "1950 & Ruby Blu"
    INDEX 01 00:00:00
FILE "20. Carlprit - Fiesta.flac" WAVE
  TRACK 20 AUDIO
    TITLE Fiesta
    PERFORMER Carlprit
    INDEX 01 00:00:00
FILE "21. Nhan Solo & FML - Easy.flac" WAVE
  TRACK 21 AUDIO
    TITLE Easy
    PERFORMER "Nhan Solo & FML"
    INDEX 01 00:00:00
FILE "22. DJ Fresh & RaVaughn - The Feeling.flac" WAVE
  TRACK 22 AUDIO
    TITLE "The Feeling"
    PERFORMER "DJ Fresh & RaVaughn"
    INDEX 01 00:00:00
FILE "23. Justin Bieber & Nicki Minaj - Beauty And A Beat.flac" WAVE
  TRACK 23 AUDIO
    TITLE "Beauty And A Beat"
    PERFORMER "Justin Bieber & Nicki Minaj"
    INDEX 01 00:00:00

CD2

REM GENRE Dance
REM DATE 2013
REM DISCID 2F12B516
REM COMMENT flacmusic.ru
PERFORMER "Various Artists"
TITLE "MNM Party 2013 vol. 1 | CD2 | flacmusic.ru"
FILE "01. Bob Sinclar & Cutee-B & Dollarman & Big Ali & Makedah - Rock This Party (Everybody Dance Now).flac" WAVE
  TRACK 01 AUDIO
    TITLE "Rock This Party (Everybody Dance Now)"
    PERFORMER "Bob Sinclar & Cutee-B & Dollarman & Big Ali & Makedah"
    INDEX 01 00:00:00
FILE "02. Faithless - Insomnia.flac" WAVE
  TRACK 02 AUDIO
    TITLE Insomnia
    PERFORMER Faithless
    INDEX 01 00:00:00
FILE "03. 2 Fabiola - Lift U Up.flac" WAVE
  TRACK 03 AUDIO
    TITLE "Lift U Up"
    PERFORMER "2 Fabiola"
    INDEX 01 00:00:00
FILE "04. Lasgo - Something.flac" WAVE
  TRACK 04 AUDIO
    TITLE Something
    PERFORMER Lasgo
    INDEX 01 00:00:00
FILE "05. Moloko - Sing It Back.flac" WAVE
  TRACK 05 AUDIO
    TITLE "Sing It Back"
    PERFORMER Moloko
    INDEX 01 00:00:00
FILE "06. Black Eyed Peas - The Time (Dirty Bit).flac" WAVE
  TRACK 06 AUDIO
    TITLE "The Time (Dirty Bit)"
    PERFORMER "Black Eyed Peas"
    INDEX 01 00:00:00
FILE "07. Felix - Don't You Want Me.flac" WAVE
  TRACK 07 AUDIO
    TITLE "Don't You Want Me"
    PERFORMER Felix
    INDEX 01 00:00:00
FILE "08. David Guetta & Akon - Sexy Bitch.flac" WAVE
  TRACK 08 AUDIO
    TITLE "Sexy Bitch"
    PERFORMER "David Guetta & Akon"
    INDEX 01 00:00:00
FILE "09. Gala - Freed From Desire.flac" WAVE
  TRACK 09 AUDIO
    TITLE "Freed From Desire"
    PERFORMER Gala
    INDEX 01 00:00:00
FILE "10. Dr Alban - Sing Hallelujah.flac" WAVE
  TRACK 10 AUDIO
    TITLE "Sing Hallelujah"
    PERFORMER "Dr Alban"
    INDEX 01 00:00:00
FILE "11. Reel 2 Real & The Mad Stuntman - I Like To Move It.flac" WAVE
  TRACK 11 AUDIO
    TITLE "I Like To Move It"
    PERFORMER "Reel 2 Real & The Mad Stuntman"
    INDEX 01 00:00:00
FILE "12. Technotronic & Felly - Pump Up The Jam.flac" WAVE
  TRACK 12 AUDIO
    TITLE "Pump Up The Jam"
    PERFORMER "Technotronic & Felly"
    INDEX 01 00:00:00
FILE "13. Ce Ce Peniston - Finally.flac" WAVE
  TRACK 13 AUDIO
    TITLE Finally
    PERFORMER "Ce Ce Peniston"
    INDEX 01 00:00:00
FILE "14. Nightcrawlers - Push The Feeling On.flac" WAVE
  TRACK 14 AUDIO
    TITLE "Push The Feeling On"
    PERFORMER Nightcrawlers
    INDEX 01 00:00:00
FILE "15. Sash - Encore Une Fois.flac" WAVE
  TRACK 15 AUDIO
    TITLE "Encore Une Fois"
    PERFORMER Sash
    INDEX 01 00:00:00
FILE "16. Paradisio - Bailando.flac" WAVE
  TRACK 16 AUDIO
    TITLE Bailando
    PERFORMER Paradisio
    INDEX 01 00:00:00
FILE "17. Yves LaRock - Rise Up.flac" WAVE
  TRACK 17 AUDIO
    TITLE "Rise Up"
    PERFORMER "Yves LaRock"
    INDEX 01 00:00:00
FILE "18. Run-DMC & Jason Nevins - It's Like That.flac" WAVE
  TRACK 18 AUDIO
    TITLE "It's Like That"
    PERFORMER "Run-DMC & Jason Nevins"
    INDEX 01 00:00:00
FILE "19. Laurent Wolf & Eric Carter - No Stress.flac" WAVE
  TRACK 19 AUDIO
    TITLE "No Stress"
    PERFORMER "Laurent Wolf & Eric Carter"
    INDEX 01 00:00:00
FILE "20. Cascada - Evacuate The Dancefloor.flac" WAVE
  TRACK 20 AUDIO
    TITLE "Evacuate The Dancefloor"
    PERFORMER Cascada
    INDEX 01 00:00:00
FILE "21. Roger Sanchez - Another Chance.flac" WAVE
  TRACK 21 AUDIO
    TITLE "Another Chance"
    PERFORMER "Roger Sanchez"
    INDEX 01 00:00:00
FILE "22. Daan - Housewife.flac" WAVE
  TRACK 22 AUDIO
    TITLE Housewife
    PERFORMER Daan
    INDEX 01 00:00:00

CD1

[CUETools log; Date: 06.06.2013 11:01:45; Version: 2.1.4]
[CTDB TOCID: 4sOPoYIFuCRSuiVEU1udBUreOLA-] found.
Track | CTDB Status
  1   | (3/3) Accurately ripped
  2   | (3/3) Accurately ripped
  3   | (3/3) Accurately ripped
  4   | (3/3) Accurately ripped
  5   | (3/3) Accurately ripped
  6   | (3/3) Accurately ripped
  7   | (3/3) Accurately ripped
  8   | (3/3) Accurately ripped
  9   | (3/3) Accurately ripped
10   | (3/3) Accurately ripped
11   | (3/3) Accurately ripped
12   | (3/3) Accurately ripped
13   | (3/3) Accurately ripped
14   | (3/3) Accurately ripped
15   | (3/3) Accurately ripped
16   | (3/3) Accurately ripped
17   | (3/3) Accurately ripped
18   | (3/3) Accurately ripped
19   | (3/3) Accurately ripped
20   | (3/3) Accurately ripped
21   | (3/3) Accurately ripped
22   | (3/3) Accurately ripped
23   | (3/3) Accurately ripped
[AccurateRip ID: 004197ec-0443be81-3a12b217] disk not present in database.
Track Peak [ CRC32  ] [W/O NULL] [  LOG   ]
--  100,0 [EDE4E27D] [65295C35]
01   89,2 [8B2A5143] [97F49806]   CRC32
02   98,8 [8440D014] [8FB0AA00]   CRC32
03  100,0 [1591178D] [33342840]   CRC32
04   91,3 [A071D535] [180A8E7D]   CRC32
05  100,0 [4405365F] [54C80A06]   CRC32
06  100,0 [93A4663F] [D4989968]   CRC32
07   81,3 [3BD6C024] [E97D6D50]   CRC32
08  100,0 [58F98201] [DB4DD555]   CRC32
09  100,0 [A33A6A2F] [84103F2C]   CRC32
10   93,6 [7C656B6C] [511C7B68]   CRC32
11  100,0 [488E6F9A] [7DBF95F2]   CRC32
12  100,0 [52795898] [D379F630]   CRC32
13   79,5 [F51A0A2B] [393B5F59]   CRC32
14   84,1 [4C4DCD6A] [0D0A3763]   CRC32
15  100,0 [51D5B7CC] [C91D3FDD]   CRC32
16   64,9 [D900D9A8] [54098243]   CRC32
17   81,1 [3B4645F7] [A01C165B]   CRC32
18  100,0 [7EC40A7A] [D3703282]   CRC32
19  100,0 [79AC4B6C] [0426F510]   CRC32
20   99,2 [EBB15C97] [BFD25DE1]   CRC32
21   96,6 [EEF33A7B] [122EB0A3]   CRC32
22   79,5 [BE1C523D] [D52F45E5]   CRC32
23  100,0 [AC2642C6] [A02B2A73]   CRC32

CD2

[CUETools log; Date: 06.06.2013 11:03:42; Version: 2.1.4]
[CTDB TOCID: 9FCNdICLicR1yRb8PEGd_nA5Tb4-] found.
Track | CTDB Status
  1   | (3/3) Accurately ripped
  2   | (3/3) Accurately ripped
  3   | (3/3) Accurately ripped
  4   | (3/3) Accurately ripped
  5   | (3/3) Accurately ripped
  6   | (3/3) Accurately ripped
  7   | (3/3) Accurately ripped
  8   | (3/3) Accurately ripped
  9   | (3/3) Accurately ripped
10   | (3/3) Accurately ripped
11   | (3/3) Accurately ripped
12   | (3/3) Accurately ripped
13   | (3/3) Accurately ripped
14   | (3/3) Accurately ripped
15   | (3/3) Accurately ripped
16   | (3/3) Accurately ripped
17   | (3/3) Accurately ripped
18   | (3/3) Accurately ripped
19   | (3/3) Accurately ripped
20   | (3/3) Accurately ripped
21   | (3/3) Accurately ripped
22   | (3/3) Accurately ripped
[AccurateRip ID: 003ed46d-03ede6f0-2f12b516] disk not present in database.
Track Peak [ CRC32  ] [W/O NULL] [  LOG   ]
--  100,0 [D146621C] [98724141]
01   86,1 [D9821F5B] [5B6A32D2]   CRC32
02  100,0 [8DD26966] [D2FA0390]   CRC32
03   99,1 [E9CB8F61] [D17C2B89]   CRC32
04  100,0 [D225BB18] [80B1A5FB]   CRC32
05   95,9 [9C9A2005] [D9509761]   CRC32
06  100,0 [20488330] [D3962CDE]   CRC32
07  100,0 [3F43D5BA] [466C10CD]   CRC32
08   90,0 [EF5C2539] [953CA55C]   CRC32
09  100,0 [257040DD] [6EE5D705]   CRC32
10  100,0 [04644DE6] [97389584]   CRC32
11  100,0 [C65E56A0] [7D9B056B]   CRC32
12  100,0 [3116F12E] [F060A815]   CRC32
13  100,0 [35377AE6] [28F0C6DA]   CRC32
14  100,0 [6898371D] [9D49476D]   CRC32
15   94,5 [398B996D] [CDE004E4]   CRC32
16  100,0 [1597DDFC] [81E24AC3]   CRC32
17  100,0 [BD393B32] [FE20DD25]   CRC32
18  100,0 [0749789D] [D5F1E928]   CRC32
19  100,0 [3E593380] [1598CF31]   CRC32
20  100,0 [160C12D1] [3031B96E]   CRC32
21   98,6 [3BE8F887] [978836AD]   CRC32
22   98,9 [3847C73F] [E47BD7D7]   CRC32
Время раздачи: 24/7 - круглосуточно

[Цитировать]



Показать сообщения:    

Текущее время: 17-Янв 12:03

Часовой пояс: UTC + 3


Вы не можете начинать темы
Вы не можете отвечать на сообщения
Вы не можете редактировать свои сообщения
Вы не можете удалять свои сообщения
Вы не можете голосовать в опросах
Вы не можете прикреплять файлы к сообщениям
Вы не можете скачивать файлы

!ВНИМАНИЕ!
Сайт не предоставляет электронные версии произведений, а занимается лишь коллекционированием и каталогизацией ссылок, присылаемых и публикуемых на форуме нашими читателями. Если вы являетесь правообладателем какого-либо представленного материала и не желаете, чтобы ссылка на него находилась в нашем каталоге, свяжитесь с нами, и мы незамедлительно удалим ее. Файлы для обмена на трекере предоставлены пользователями сайта, и администрация не несет ответственности за их содержание. Просьба не заливать файлы, защищенные авторскими правами, а также файлы нелегального содержания!