[ Сегодня идет свободное скачивание без начисления Download ]


Статистика раздачи
Нет
 
   
 
 
 
- Поединок с Владимиром Соловьевым. Выпуск №89. Курение в общественных местах (2013.06.06) SATRip - Режиссер / Телекомпания: Россия
Русское название: Поединок с Владимиром Соловьевым
Год выпуска: 2013
Жанр: ТВ-Шоу
Режиссер / Ведущий: Владимир Соловьев
Описание:
Телеведущий Владимир Соловьев после годового перерыва возвращается на экран в качестве ведущего нового общественного политического шоу «Поединок», который будет выходить на телеканале «Россия».
«Это будет очень яркое действо, бескомпромиссное столкновение мнений и позиций, причем не по вопросам каким-нибудь историческим, например, кто сжег Москву — Кутузов или Наполеон, а по самым актуальным темам нынешнего дня», — рассказал В. Соловьев «Интерфаксу».
При этом он отметил, что «в программе не будет никаких ограничений тем, никакой цензуры».
При этом он отметил, что первоначально программа будет выходить для зрителей Дальнего Востока, а потом ее смогут видеть в европейской части России.
Отвечая на вопросы, В. Соловьев не исключил, что на телеканале «Россия» впоследствии появятся и другие его программы, но пока предпочел не говорить, о чем они могут быть.
В. Соловьев ранее был телеведущим на телеканале «НТВ».
После того, как В. Соловьев перестал быть ведущим программы «К барьеру!», он год не появлялся в телеэфире.

Цитата:

Я работал на многих ТВ-каналах и хорошо знаю, что в нашей стране свобода определяется не формой собственности, а личностью руководителя. Пока рано судить о новых проектах на "России 1" и "Вестях FM", но подготовительный процесс меня удивляет: такого внимания к себе и своей команде я нигде не видел. От меня ждут только одного - острых интересных программ. (далее) Страница Facebook:

В сегодняшнем выпуске: Курение в общественных местах

В программе Владимира Соловьева "Поединок" участвуют:
Дмитрий Назаров vs Александр Мясников.
В дискуссии примут участие и эксперты. Теперь они будут задавать вопросы участникам, а секунданты - подводить итоги раундов.:
Продолжительность: ~ 01:37:55
Видеокодек: DivX
Битрейт видео: ~1500 kb/s
Размер кадра: 704 x 448
Качество видео: SATRip
Аудиокодек: MP3, 1ch.
Битрейт аудио: 128 kb/s

MediaInfo

Формат : AVI
Формат/Информация : Audio Video Interleave
Размер файла : 1,12 Гбайт
Продолжительность : 1 ч. 37 м.
Общий поток : 1638 Кбит/сек
Библиотека кодирования : VirtualDub build 32842/release
Видео
Идентификатор : 0
Формат : MPEG-4 Visual
Параметр BVOP формата : 1
Параметр QPel формата : Нет
Параметр GMC формата : Без точки перехода
Параметр матрицы формата : Default (H.263)
Режим смешивания : Сжатый битовый поток
Идентификатор кодека : DX50
Идентификатор кодека/Подсказка : DivX 5
Продолжительность : 1 ч. 37 м.
Битрейт : 1501 Кбит/сек
Ширина : 704 пикселя
Высота : 448 пикселей
Соотношение сторон : 1,571
Частота кадров : 25,000 кадров/сек
Цветовое пространство : YUV
Субдискретизация насыщенности : 4:2:0
Битовая глубина : 8 бит
Тип развёртки : Прогрессивная
Метод сжатия : С потерями
Бит/(Пиксели*Кадры) : 0.190
Размер потока : 1,03 Гбайт (92%)
Библиотека кодирования : DivX 6.8.5 (UTC 2009-08-20)
Аудио
Идентификатор : 1
Формат : MPEG Audio
Версия формата : Version 1
Профиль формата : Layer 3
Идентификатор кодека : 55
Идентификатор кодека/Подсказка : MP3
Продолжительность : 1 ч. 37 м.
Вид битрейта : Постоянный
Битрейт : 128 Кбит/сек
Каналы : 1 канал
Частота : 48,0 КГц
Метод сжатия : С потерями
Размер потока : 89,7 Мбайт (8%)
Выравнивание : Разделение по промежуткам
Продолжительность промежутка : 40 мс. (1,00 видеокадр)
Время предзагрузки промежутка : 500 мс.
Скриншоты:

[Цитировать]



Показать сообщения:    

Текущее время: 04-Дек 19:13

Часовой пояс: UTC + 3


Вы не можете начинать темы
Вы не можете отвечать на сообщения
Вы не можете редактировать свои сообщения
Вы не можете удалять свои сообщения
Вы не можете голосовать в опросах
Вы не можете прикреплять файлы к сообщениям
Вы не можете скачивать файлы

!ВНИМАНИЕ!
Сайт не предоставляет электронные версии произведений, а занимается лишь коллекционированием и каталогизацией ссылок, присылаемых и публикуемых на форуме нашими читателями. Если вы являетесь правообладателем какого-либо представленного материала и не желаете, чтобы ссылка на него находилась в нашем каталоге, свяжитесь с нами, и мы незамедлительно удалим ее. Файлы для обмена на трекере предоставлены пользователями сайта, и администрация не несет ответственности за их содержание. Просьба не заливать файлы, защищенные авторскими правами, а также файлы нелегального содержания!