[ Сегодня идет свободное скачивание без начисления Download ]


Статистика раздачи
Нет
 
   
 
 
 
- Полигон. Корд (2013.06.06) SATRip - Режиссер / Телекомпания: Россия
Русское название: Полигон
Год выпуска: 2013
Жанр: Телепередача
Описание:
Одна из самых ожидаемых премьер этого телесезона — программа о современных военных разработках, новейших видах вооружения, средствах ведения боя и индивидуальной защиты!
Российская армия сегодня – это не только автомат Калашникова и самолеты Сухого. Инновационные разработки военно-промышленного комплекса открывают практически безграничные возможности. Однако гражданским лицам о них известно крайне мало. Чтобы восполнить этот пробел, ведущие телеканала «Россия 2? Иван Лебедев и Дмитрий Задорожный отправляются на настоящие военные полигоны.
В «боевых условиях» они попытаются выяснить, как устроены и работают современные бронеавтомобили и снайперские винтовки, ударные вертолеты и боевые корабли. С любознательностью новобранцев они будут рассматривать каждый винтик и интересоваться его предназначением, а также проводить тест-драйвы, ставить рискованные опыты и бесшабашные эксперименты.
В этой программе не будет кирзовых сапог и строевой подготовки. Зато будет все то, о чем каждый настоящий мужчина мечтает с раннего детства – много оружия и грозной военной техники.
Режиссёр: Максим Иванов, Илья Яковлев
Ведущий: Иван Лебедев
Продолжительность: ~ 00:26:46
Видеокодек: XVID
Битрейт видео: ~1793 kb/s
Размер кадра: 704 x 400
Качество видео: SATRip
Аудиокодек: MP3, 2ch.
Битрейт аудио: 128 kb/s

В выпуске

Снайперский комплекс и пулемет калибра 12,7 мм. Все это "Корд" - лучшее в мире стрелковое вооружение крупного калибра. Иван Лебедев отправляется на завод имени В. А. Дегтярева, чтобы изучить особенности производства этого оружия и проверить его в деле. Как куется и нарезается ствол снайперской винтовки, что может сделать пуля калибра 12,7 мм, выпущенная из пулемета, и сможет ли справиться с этим грозным оружием хрупкая девушка

MediaInfo

Формат : AVI
Формат/Информация : Audio Video Interleave
Размер файла : 370 Мбайт
Продолжительность : 26 м.
Общий поток : 1931 Кбит/сек
Библиотека кодирования : VirtualDub build 32507/release
Видео
Идентификатор : 0
Формат : MPEG-4 Visual
Профиль формата : Advanced Simple@L5
Параметр BVOP формата : 2
Параметр QPel формата : Нет
Параметр GMC формата : Без точки перехода
Параметр матрицы формата : Default (H.263)
Режим смешивания : Сжатый битовый поток
Идентификатор кодека : XVID
Идентификатор кодека/Подсказка : XviD
Продолжительность : 26 м.
Битрейт : 1793 Кбит/сек
Ширина : 704 пикселя
Высота : 400 пикселей
Соотношение сторон : 16:9
Частота кадров : 25,000 кадров/сек
Цветовое пространство : YUV
Субдискретизация насыщенности : 4:2:0
Битовая глубина : 8 бит
Тип развёртки : Прогрессивная
Метод сжатия : С потерями
Бит/(Пиксели*Кадры) : 0.255
Размер потока : 343 Мбайт (93%)
Библиотека кодирования : XviD 1.1.2 (UTC 2006-11-01)
Аудио
Идентификатор : 1
Формат : MPEG Audio
Версия формата : Version 1
Профиль формата : Layer 3
Режим : Joint stereo
Расширение режима : MS Stereo
Идентификатор кодека : 55
Идентификатор кодека/Подсказка : MP3
Продолжительность : 26 м.
Вид битрейта : Постоянный
Битрейт : 128 Кбит/сек
Каналы : 2 канала
Частота : 48,0 КГц
Метод сжатия : С потерями
Размер потока : 24,5 Мбайт (7%)
Выравнивание : Разделение по промежуткам
Продолжительность промежутка : 40 мс. (1,00 видеокадр)
Время предзагрузки промежутка : 500 мс.
Скриншоты:

[Цитировать]



Показать сообщения:    

Текущее время: 11-Дек 11:06

Часовой пояс: UTC + 3


Вы не можете начинать темы
Вы не можете отвечать на сообщения
Вы не можете редактировать свои сообщения
Вы не можете удалять свои сообщения
Вы не можете голосовать в опросах
Вы не можете прикреплять файлы к сообщениям
Вы не можете скачивать файлы

!ВНИМАНИЕ!
Сайт не предоставляет электронные версии произведений, а занимается лишь коллекционированием и каталогизацией ссылок, присылаемых и публикуемых на форуме нашими читателями. Если вы являетесь правообладателем какого-либо представленного материала и не желаете, чтобы ссылка на него находилась в нашем каталоге, свяжитесь с нами, и мы незамедлительно удалим ее. Файлы для обмена на трекере предоставлены пользователями сайта, и администрация не несет ответственности за их содержание. Просьба не заливать файлы, защищенные авторскими правами, а также файлы нелегального содержания!