[ Сегодня идет свободное скачивание без начисления Download ]


Статистика раздачи
Нет
 
   
 
 
 
- Наука 2.0. Большой Скачок. Олимпийский лед (2013) SATRip - Режиссер / Телекомпания: Россия
Русское название: Наука 2.0
Год выпуска: 2013
Жанр: Документальный
Описание:
"Большой скачок" — научно-популярный цикл документальных фильмов о достижениях российских ученых, уникальных разработках, технологиях будущего и настоящего, детальном рассмотрении обыденных вещей и процессов. Герои фильмов - учёные, инженеры, изобретатели, - люди, которые меняют наш мир день за днём. В цикле рассказывается и показывается, как устроен наш мир, как работают технологии, как создаются вещи, которые нас окружают. Главная цель - популяризация российской науки. Задача - легко и доступно рассказать зрителям о мире научных открытий, изобретениях, достижениях и новых технологиях. Миссия создателей - вовлечь зрителя в мир науки, удивить, просветить и расширить границы знаний и понимания явлений и процессов; показать закрытые структуры, проникнуть в засекреченные лаборатории, объяснить самые сложные научные и технологические процессы.
Ведущий: Владимир Раевский
Продолжительность: ~ 00:25:41
Видеокодек: XviD
Битрейт видео: ~1795 kb/s
Размер кадра: 704 x 400
Качество видео: SATRip
Аудиокодек: MP3, 2ch.
Битрейт аудио: 128 kb/s

В выпуске

Хоккей, фигурное катание, конькобежный спорт. Кажется, что их объединяет одна ледовая поверхность. Но лед для каждого из этих видов спорта варят по-разному. Именно "варят", ведь процесс заливки катка дело трудоемкое и наукоемкое. К Олимпиаде в Сочи будет открыто несколько ледовых площадок и дворцов. Уже сегодня ведется огромная работа по созданию спортивных арен. Какой же должна быть ледовая поверхность? В каких объемах олимпийские строители производят снег сегодня и для чего хранят прошлогодний? Ответы в нашей программе.

MediaInfo

Формат : AVI
Формат/Информация : Audio Video Interleave
Размер файла : 355 Мбайт
Продолжительность : 25 м.
Общий поток : 1933 Кбит/сек
Библиотека кодирования : VirtualDub build 32507/release
Видео
Идентификатор : 0
Формат : MPEG-4 Visual
Профиль формата : Advanced Simple@L5
Параметр BVOP формата : 2
Параметр QPel формата : Нет
Параметр GMC формата : Без точки перехода
Параметр матрицы формата : Default (H.263)
Режим смешивания : Сжатый битовый поток
Идентификатор кодека : XVID
Идентификатор кодека/Подсказка : XviD
Продолжительность : 25 м.
Битрейт : 1795 Кбит/сек
Ширина : 704 пикселя
Высота : 400 пикселей
Соотношение сторон : 16:9
Частота кадров : 25,000 кадров/сек
Цветовое пространство : YUV
Субдискретизация насыщенности : 4:2:0
Битовая глубина : 8 бит
Тип развёртки : Прогрессивная
Метод сжатия : С потерями
Бит/(Пиксели*Кадры) : 0.255
Размер потока : 330 Мбайт (93%)
Библиотека кодирования : XviD 1.1.2 (UTC 2006-11-01)
Аудио
Идентификатор : 1
Формат : MPEG Audio
Версия формата : Version 1
Профиль формата : Layer 3
Режим : Joint stereo
Расширение режима : MS Stereo
Идентификатор кодека : 55
Идентификатор кодека/Подсказка : MP3
Продолжительность : 25 м.
Вид битрейта : Постоянный
Битрейт : 128 Кбит/сек
Каналы : 2 канала
Частота : 48,0 КГц
Метод сжатия : С потерями
Размер потока : 23,5 Мбайт (7%)
Выравнивание : Разделение по промежуткам
Продолжительность промежутка : 40 мс. (1,00 видеокадр)
Время предзагрузки промежутка : 500 мс.
Скриншоты:

[Цитировать]



Показать сообщения:    

Текущее время: 09-Дек 01:11

Часовой пояс: UTC + 3


Вы не можете начинать темы
Вы не можете отвечать на сообщения
Вы не можете редактировать свои сообщения
Вы не можете удалять свои сообщения
Вы не можете голосовать в опросах
Вы не можете прикреплять файлы к сообщениям
Вы не можете скачивать файлы

!ВНИМАНИЕ!
Сайт не предоставляет электронные версии произведений, а занимается лишь коллекционированием и каталогизацией ссылок, присылаемых и публикуемых на форуме нашими читателями. Если вы являетесь правообладателем какого-либо представленного материала и не желаете, чтобы ссылка на него находилась в нашем каталоге, свяжитесь с нами, и мы незамедлительно удалим ее. Файлы для обмена на трекере предоставлены пользователями сайта, и администрация не несет ответственности за их содержание. Просьба не заливать файлы, защищенные авторскими правами, а также файлы нелегального содержания!