[ Сегодня идет свободное скачивание без начисления Download ]


Статистика раздачи
Скачал: [ 1 ]
 
   
 
Top  
 
 
Slash - Slash (Canadian Deluxe Edition)
Жанр: Hard Rock
Год выпуска диска: 2010
Производитель диска: Canada
Аудио кодек: FLAC
Тип рипа: tracks+.cue
Битрейт аудио: lossless
Продолжительность: 01:12:59
Релиз: what.cd (boneshj)
Трэклист:
01. Ghost (Ian Astbury)
02. Crucify The Dead (Ozzy Osbourne)
03. Beautiful Dangerous (Fergie)
04. Back From Cali (Myles Kennedy)
05. Promise (Chris Cornell)
06. By The Sword (Andrew Stockdale)
07. Gotten (Adam Levine)
08. Doctor Alibi (Lemmy)
09. Watch This Dave (Dave Grohl & Duff McKagan)
10. I Hold On (Kid Rock)
11. Nothing To Say (M Shadows)
12. Starlight (Myles Kennedy)
13. Saint Is A Sinner Too (Rocco Deluca)
14. We're All Gonna Die (Iggy Pop)
15. Sahara (Koshi Inaba)
16. Baby Can't Drive (Alice Cooper & Nicole Scherzinger)
17. Paradise City (Fergie & Cypress Hill)

EAC

Syrup 0.9.9.47, Track.cfg v.0993
Exact Audio Copy V0.99 prebeta 4 from 23. January 2008
EAC extraction logfile from 7. April 2010, 18:42
Slash / Slash
Used drive : HL-DT-STDVDRAM GSA-H10L Adapter: 4 ID: 1
Read mode : Secure
Utilize accurate stream : Yes
Defeat audio cache : Yes
Make use of C2 pointers : No
Read offset correction : 667
Overread into Lead-In and Lead-Out : No
Fill up missing offset samples with silence : Yes
Delete leading and trailing silent blocks : No
Null samples used in CRC calculations : Yes
Used interface : Native Win32 interface for Win NT & 2000
Gap handling : Appended to previous track
Used output format : User Defined Encoder
Selected bitrate : 128 kBit/s
Quality : High
Add ID3 tag : No
Command line compressor : C:\Program Files\Exact Audio Copy\Syrup\Syrup.exe
Additional command line options : REACT %o %s %d "%a" "%g" "%t" "%n" "%x" "%y" "%m" "%e" "%f" "%b" %r
TOC of the extracted CD
Track | Start | Length | Start sector | End sector
---------------------------------------------------------
1 | 0:00.00 | 3:35.11 | 0 | 16135
2 | 3:35.11 | 4:04.19 | 16136 | 34454
3 | 7:39.30 | 4:38.37 | 34455 | 55341
4 | 12:17.67 | 3:36.59 | 55342 | 71600
5 | 15:54.51 | 4:40.15 | 71601 | 92615
6 | 20:34.66 | 4:51.39 | 92616 | 114479
7 | 25:26.30 | 5:02.12 | 114480 | 137141
8 | 30:28.42 | 3:09.17 | 137142 | 151333
9 | 33:37.59 | 3:47.23 | 151334 | 168381
10 | 37:25.07 | 4:16.24 | 168382 | 187605
11 | 41:41.31 | 5:26.31 | 187606 | 212086
12 | 47:07.62 | 5:26.24 | 212087 | 236560
13 | 52:34.11 | 3:27.49 | 236561 | 252134
14 | 56:01.60 | 4:32.46 | 252135 | 272580
15 | 60:34.31 | 3:58.27 | 272581 | 290457
16 | 64:32.58 | 3:20.21 | 290458 | 305478
17 | 67:53.04 | 5:14.27 | 305479 | 329055
Track 1
Filename C:\Users\James\AppData\Local\Temp\Syrup\Slash - Slash - 01 - Ghost (Ian Astbury).wav
Pre-gap length 0:00:02.00
Peak level 100.0 %
Track quality 100.0 %
Test CRC 295D3C93
Copy CRC 295D3C93
Track not present in AccurateRip database
Copy OK
Track 2
Filename C:\Users\James\AppData\Local\Temp\Syrup\Slash - Slash - 02 - Crucify The Dead (Ozzy Osbourne).wav
Peak level 99.9 %
Track quality 100.0 %
Test CRC F00311D3
Copy CRC F00311D3
Track not present in AccurateRip database
Copy OK
Track 3
Filename C:\Users\James\AppData\Local\Temp\Syrup\Slash - Slash - 03 - Beautiful Dangerous (Fergie).wav
Peak level 100.0 %
Track quality 100.0 %
Test CRC 44730A30
Copy CRC 44730A30
Track not present in AccurateRip database
Copy OK
Track 4
Filename C:\Users\James\AppData\Local\Temp\Syrup\Slash - Slash - 04 - Back From Cali (Myles Kennedy).wav
Peak level 100.0 %
Track quality 100.0 %
Test CRC 9B83E8F6
Copy CRC 9B83E8F6
Track not present in AccurateRip database
Copy OK
Track 5
Filename C:\Users\James\AppData\Local\Temp\Syrup\Slash - Slash - 05 - Promise (Chris Cornell).wav
Pre-gap length 0:00:01.27
Peak level 100.0 %
Track quality 100.0 %
Test CRC 82BBFB99
Copy CRC 82BBFB99
Track not present in AccurateRip database
Copy OK
Track 6
Filename C:\Users\James\AppData\Local\Temp\Syrup\Slash - Slash - 06 - By The Sword (Andrew Stockdale).wav
Peak level 100.0 %
Track quality 100.0 %
Test CRC F97DBE90
Copy CRC F97DBE90
Track not present in AccurateRip database
Copy OK
Track 7
Filename C:\Users\James\AppData\Local\Temp\Syrup\Slash - Slash - 07 - Gotten (Adam Levine).wav
Pre-gap length 0:00:01.07
Peak level 99.9 %
Track quality 99.9 %
Test CRC E1472EB8
Copy CRC E1472EB8
Track not present in AccurateRip database
Copy OK
Track 8
Filename C:\Users\James\AppData\Local\Temp\Syrup\Slash - Slash - 08 - Doctor Alibi (Lemmy).wav
Peak level 100.0 %
Track quality 100.0 %
Test CRC EEFEFAA5
Copy CRC EEFEFAA5
Track not present in AccurateRip database
Copy OK
Track 9
Filename C:\Users\James\AppData\Local\Temp\Syrup\Slash - Slash - 09 - Watch This Dave (Dave Grohl & Duff McKagan).wav
Peak level 100.0 %
Track quality 100.0 %
Test CRC 18666E07
Copy CRC 18666E07
Track not present in AccurateRip database
Copy OK
Track 10
Filename C:\Users\James\AppData\Local\Temp\Syrup\Slash - Slash - 10 - I Hold On (Kid Rock).wav
Peak level 100.0 %
Track quality 100.0 %
Test CRC 62A2DAF2
Copy CRC 62A2DAF2
Track not present in AccurateRip database
Copy OK
Track 11
Filename C:\Users\James\AppData\Local\Temp\Syrup\Slash - Slash - 11 - Nothing To Say (M Shadows).wav
Peak level 100.0 %
Track quality 99.9 %
Test CRC 81C1FBB5
Copy CRC 81C1FBB5
Track not present in AccurateRip database
Copy OK
Track 12
Filename C:\Users\James\AppData\Local\Temp\Syrup\Slash - Slash - 12 - Starlight (Myles Kennedy).wav
Pre-gap length 0:00:02.12
Peak level 100.0 %
Track quality 100.0 %
Test CRC AD0F0388
Copy CRC AD0F0388
Track not present in AccurateRip database
Copy OK
Track 13
Filename C:\Users\James\AppData\Local\Temp\Syrup\Slash - Slash - 13 - Saint Is A Sinner Too (Rocco Deluca).wav
Pre-gap length 0:00:01.15
Peak level 100.0 %
Track quality 100.0 %
Test CRC 44DF36C2
Copy CRC 44DF36C2
Track not present in AccurateRip database
Copy OK
Track 14
Filename C:\Users\James\AppData\Local\Temp\Syrup\Slash - Slash - 14 - We're All Gonna Die (Iggy Pop).wav
Peak level 100.0 %
Track quality 99.9 %
Test CRC 4B7DAB54
Copy CRC 4B7DAB54
Track not present in AccurateRip database
Copy OK
Track 15
Filename C:\Users\James\AppData\Local\Temp\Syrup\Slash - Slash - 15 - Sahara (Koshi Inaba).wav
Peak level 100.0 %
Track quality 100.0 %
Test CRC 9CCD2E20
Copy CRC 9CCD2E20
Track not present in AccurateRip database
Copy OK
Track 16
Filename C:\Users\James\AppData\Local\Temp\Syrup\Slash - Slash - 16 - Baby Can't Drive (Alice Cooper & Nicole Scherzinger).wav
Peak level 100.0 %
Track quality 100.0 %
Test CRC FEF0305A
Copy CRC FEF0305A
Track not present in AccurateRip database
Copy OK
Track 17
Filename C:\Users\James\AppData\Local\Temp\Syrup\Slash - Slash - 17 - Paradise City (Fergie & Cypress Hill).wav
Pre-gap length 0:00:02.33
Peak level 100.0 %
Track quality 100.0 %
Test CRC 527CCB0E
Copy CRC 527CCB0E
Track not present in AccurateRip database
Copy OK
None of the tracks are present in the AccurateRip database
No errors occurred
End of status report

cue

REM DISCNUMBER 1
REM TOTALDISCS 1
REM GENRE "Hard Rock"
REM DATE 2010
REM DISCID F6112311
REM COMMENT "ExactAudioCopy v0.99pb4"
PERFORMER "Slash"
TITLE "Slash"
FILE "01 - Ghost (Ian Astbury).flac" WAVE
TRACK 01 AUDIO
TITLE "Ghost (Ian Astbury)"
PERFORMER "Slash"
FLAGS DCP
INDEX 01 00:00:00
FILE "02 - Crucify The Dead (Ozzy Osbourne).flac" WAVE
TRACK 02 AUDIO
TITLE "Crucify The Dead (Ozzy Osbourne)"
PERFORMER "Slash"
FLAGS DCP
INDEX 01 00:00:00
FILE "03 - Beautiful Dangerous (Fergie).flac" WAVE
TRACK 03 AUDIO
TITLE "Beautiful Dangerous (Fergie)"
PERFORMER "Slash"
FLAGS DCP
INDEX 01 00:00:00
FILE "04 - Back From Cali (Myles Kennedy).flac" WAVE
TRACK 04 AUDIO
TITLE "Back From Cali (Myles Kennedy)"
PERFORMER "Slash"
FLAGS DCP
INDEX 01 00:00:00
TRACK 05 AUDIO
TITLE "Promise (Chris Cornell)"
PERFORMER "Slash"
FLAGS DCP
INDEX 00 03:35:32
FILE "05 - Promise (Chris Cornell).flac" WAVE
INDEX 01 00:00:00
FILE "06 - By The Sword (Andrew Stockdale).flac" WAVE
TRACK 06 AUDIO
TITLE "By The Sword (Andrew Stockdale)"
PERFORMER "Slash"
FLAGS DCP
INDEX 01 00:00:00
TRACK 07 AUDIO
TITLE "Gotten (Adam Levine)"
PERFORMER "Slash"
FLAGS DCP
INDEX 00 04:50:32
FILE "07 - Gotten (Adam Levine).flac" WAVE
INDEX 01 00:00:00
FILE "08 - Doctor Alibi (Lemmy).flac" WAVE
TRACK 08 AUDIO
TITLE "Doctor Alibi (Lemmy)"
PERFORMER "Slash"
FLAGS DCP
INDEX 01 00:00:00
FILE "09 - Watch This Dave (Dave Grohl & Duff McKagan).flac" WAVE
TRACK 09 AUDIO
TITLE "Watch This Dave (Dave Grohl & Duff McKagan)"
PERFORMER "Slash"
FLAGS DCP
INDEX 01 00:00:00
FILE "10 - I Hold On (Kid Rock).flac" WAVE
TRACK 10 AUDIO
TITLE "I Hold On (Kid Rock)"
PERFORMER "Slash"
FLAGS DCP
INDEX 01 00:00:00
FILE "11 - Nothing To Say (M Shadows).flac" WAVE
TRACK 11 AUDIO
TITLE "Nothing To Say (M Shadows)"
PERFORMER "Slash"
FLAGS DCP
INDEX 01 00:00:00
TRACK 12 AUDIO
TITLE "Starlight (Myles Kennedy)"
PERFORMER "Slash"
FLAGS DCP
INDEX 00 05:24:19
FILE "12 - Starlight (Myles Kennedy).flac" WAVE
INDEX 01 00:00:00
TRACK 13 AUDIO
TITLE "Saint Is A Sinner Too (Rocco Deluca)"
PERFORMER "Slash"
FLAGS DCP
INDEX 00 05:25:09
FILE "13 - Saint Is A Sinner Too (Rocco Deluca).flac" WAVE
INDEX 01 00:00:00
FILE "14 - We're All Gonna Die (Iggy Pop).flac" WAVE
TRACK 14 AUDIO
TITLE "We're All Gonna Die (Iggy Pop)"
PERFORMER "Slash"
FLAGS DCP
INDEX 01 00:00:00
FILE "15 - Sahara (Koshi Inaba).flac" WAVE
TRACK 15 AUDIO
TITLE "Sahara (Koshi Inaba)"
PERFORMER "Slash"
INDEX 01 00:00:00
FILE "16 - Baby Can't Drive (Alice Cooper & Nicole Scherzinger).flac" WAVE
TRACK 16 AUDIO
TITLE "Baby Can't Drive (Alice Cooper & Nicole Scherzinger)"
PERFORMER "Slash"
INDEX 01 00:00:00
TRACK 17 AUDIO
TITLE "Paradise City (Fergie & Cypress Hill)"
PERFORMER "Slash"
INDEX 00 03:17:63
FILE "17 - Paradise City (Fergie & Cypress Hill).flac" WAVE
INDEX 01 00:00:00

[Цитировать]



Показать сообщения:    

Текущее время: 04-Дек 09:14

Часовой пояс: UTC + 3


Вы не можете начинать темы
Вы не можете отвечать на сообщения
Вы не можете редактировать свои сообщения
Вы не можете удалять свои сообщения
Вы не можете голосовать в опросах
Вы не можете прикреплять файлы к сообщениям
Вы не можете скачивать файлы

!ВНИМАНИЕ!
Сайт не предоставляет электронные версии произведений, а занимается лишь коллекционированием и каталогизацией ссылок, присылаемых и публикуемых на форуме нашими читателями. Если вы являетесь правообладателем какого-либо представленного материала и не желаете, чтобы ссылка на него находилась в нашем каталоге, свяжитесь с нами, и мы незамедлительно удалим ее. Файлы для обмена на трекере предоставлены пользователями сайта, и администрация не несет ответственности за их содержание. Просьба не заливать файлы, защищенные авторскими правами, а также файлы нелегального содержания!