[ Сегодня идет свободное скачивание без начисления Download ]


Статистика раздачи
Нет
 
   
 
 
 
-Железный человек 3 / Iron Man 3 (2013) HDScr«Герой будет сражен»- Русское название: Железный человек 3
Оригинальное название: Iron Man 3
Год выпуска: 2013
Производство: США, Китай / Marvel Studios, Paramount Pictures
Жанр: Фантастика, Боевик, Приключения
Перевод: Дублированный [звук с TS]
Субтитры: Отсутствуют
Дата мировой премьеры: 18 апреля 2013
Дата российской премьеры: 2 мая 2013, «WDSSPR»
Дата выхода DVD релиза: 27 августа 2013, «Уолт Дисней Компани СНГ»
Дата выхода Blu-Ray релиза: 27 августа 2013, «Уолт Дисней Компани СНГ»
Режиссер: Шейн Блэк
Продюсер: Кевин Файги, Виктория Алонсо, Митчелл Белл
Актеры: Роберт Дауни мл., Гвинет Пэлтроу, Дон Чидл, Гай Пирс, Бен Кингсли, Ребекка Холл, Пол Беттани, Джон Фавро, Уильям Сэдлер, Джеймс Бэдж Дэйл
Описание фильма:
Тони Старк – железный человек. Об этом уже знает весь мир. Происходит так, что неуязвимый человек запутывается в собственных желаниях и мыслях, он не может найти себе места. Тони прилагает массу усилий, чтобы разобраться с самим собой.
Как раз в это трудное для Старка время появляется человек, называющий себя Учителем, который абсолютно уверен, что героев не существует в принципе. Он готов это доказать всему миру, а то что для этого нужно убить Тони Старка и погубить множество жизней, это совершенно его не волнует. Он готов идти до конца. Фильм Железный человек 3 – фантастический боевик, в основу которого положен одноименный комикс Marvel.

Продолжительность: 02:10:00
Качество видео: HDScr
Видеокодек: MPEG-4 AVC/H.264
Битрейт видео: ~4000 Kbit/s
Размер кадра: 1280 x 520
Аудио #1: MP3, 48,0 КHz, 2.0, 192 Kbit/s (Русский дублированный)
Аудио #2: AC3, 48,0 КHz, 2.0, 384 Kbit/s (Оригинальный английский)

MediaInfo

Общее
Уникальный идентификатор : 223998497014744652054535411164292056045 (0xA8848A91F89E05B4BA903919270003ED)
Полное имя : D:\Торренты\Железный человек 3.2013.HDTVRip.720p.mkv
Формат : Matroska
Размер файла : 4,15 Гбайт
Продолжительность : 2 ч. 10 м.
Общий поток : 4574 Кбит/сек
Дата кодирования : UTC 2013-05-31 20:53:08
Программа кодирования : mkvmerge v6.2.0 ('Promised Land')
Библиотека кодирования : libebml v1.3.0 + libmatroska v1.4.0
Видео
Идентификатор : 1
Формат : AVC
Формат/Информация : Advanced Video Codec
Профиль формата : High@L5.1
Параметр CABAC формата : Нет
Параметр ReFrames формата : 1 кадр
Параметры GOP формата : M=1, N=33
Идентификатор кодека : V_MPEG4/ISO/AVC
Продолжительность : 2 ч. 10 м.
Вид битрейта : Постоянный
Битрейт : 4000 Кбит/сек
Ширина : 1280 пикс.
Высота : 520 пикс.
Соотношение сторон : 2,462
Частота кадров : 29,970 кадр/сек
Стандарт вещания : NTSC
Цветовое пространство : YUV
Подвыборка цветности : 4:2:0
Битовая глубина : 8 бит
Тип развёртки : Прогрессивная
Бит/(Пиксели*Кадры) : 0.201
Размер потока : 3,55 Гбайт (85%)
Язык : English
Основные цвета : BT.709-5, BT.1361, IEC 61966-2-4, SMPTE RP177
Характеристики трансфера : BT.709-5, BT.1361
Коэффициенты матрицы : BT.709-5, BT.1361, IEC 61966-2-4 709, SMPTE RP177
Аудио #1
Идентификатор : 2
Формат : MPEG Audio
Версия формата : Version 1
Профиль формата : Layer 3
Идентификатор кодека : A_MPEG/L3
Идентификатор кодека/Подсказка : MP3
Продолжительность : 2 ч. 10 м.
Вид битрейта : Постоянный
Битрейт : 192 Кбит/сек
Каналы : 2 канала
Частота : 48,0 КГц
Метод сжатия : С потерями
Задержка видео : -1 мс.
Размер потока : 179 Мбайт (4%)
Язык : Russian
Аудио #2
Идентификатор : 3
Формат : AC-3
Формат/Информация : Audio Coding 3
Расширение режима : CM (complete main)
Идентификатор кодека : A_AC3
Продолжительность : 2 ч. 10 м.
Вид битрейта : Постоянный
Битрейт : 384 Кбит/сек
Каналы : 2 канала
Расположение каналов : Front: L R
Частота : 48,0 КГц
Битовая глубина : 16 бит
Метод сжатия : С потерями
Задержка видео : -1 мс.
Размер потока : 357 Мбайт (8%)
Язык : English
Скриншоты:
Время раздачи: 24/7 по возможности

[Цитировать]



Показать сообщения:    

Текущее время: 26-Апр 00:33

Часовой пояс: UTC + 6


Вы не можете начинать темы
Вы не можете отвечать на сообщения
Вы не можете редактировать свои сообщения
Вы не можете удалять свои сообщения
Вы не можете голосовать в опросах
Вы не можете прикреплять файлы к сообщениям
Вы не можете скачивать файлы

!ВНИМАНИЕ!
Сайт не предоставляет электронные версии произведений, а занимается лишь коллекционированием и каталогизацией ссылок, присылаемых и публикуемых на форуме нашими читателями. Если вы являетесь правообладателем какого-либо представленного материала и не желаете, чтобы ссылка на него находилась в нашем каталоге, свяжитесь с нами, и мы незамедлительно удалим ее. Файлы для обмена на трекере предоставлены пользователями сайта, и администрация не несет ответственности за их содержание. Просьба не заливать файлы, защищенные авторскими правами, а также файлы нелегального содержания!