[ Сегодня идет свободное скачивание без начисления Download ]


Статистика раздачи
Нет
 
   
 
Top  
 
 
-Чумовая пятница (Расширенная альтернативная версия) / Freaky Friday (Extended Alternative Cut) (2003) DVDRip- Русское название: Чумовая пятница (Расширенная альтернативная версия)
Оригинальное название: Freaky Friday (Extended Alternative Cut)
Год выпуска: 2003
Жанр: Комедия, Семейный
Описание фильма:
Как и многие тинейджеры, 15-летняя Анна никак не может найти общий язык со своей матерью Тесс. Они расходятся во взглядах буквально на все! Тесс терпеть не может рок-музыку, дикие прически и бойфрендов Анны. А Анна в ярости, что ее мать собралась второй раз замуж. Бесконечные ссоры сотрясают их дом, Похоже, героиням никогда не договориться, но происходит чудо - и однажды в пятницу каждая просыпается... в теле другой! Что ж, лучшего шанса понять друг друга лучше и не придумаешь, и в тоже время это ужасная катастрофа, ведь на субботу назначена мамина свадьба! Волшебная, чумовая пятница вступает в свои права, и у Тесс с Анной есть лишь 24 часа, чтобы найти способ вернуться в свои тела! И побыстрее!
Режиссер: Марк С. Уотерс
Актеры: Джейми Ли Кертис, Линдсэй Лохан, Марк Хармон, Хэролд Гулд, Чэд Мюррей, Стивен Тоболовски, Кристина Видал, Райан Малгарини, Хэйли Хадсон, Розалинд Чао, Уилли Гарсон, Дина Спайби, Дэнни Рубин
Продолжительность: 01:32:24
Перевод: Дублированный, со вставками двухголосого на расширенные места

Дата мировой премьеры: 04.08.2003
Дата российской премьеры: 30.10.2003
Дата выхода DVD релиза: 02.11.2010
Битрейт видео: ~2190 kbps avg
Размер кадра: 720x384
Качество видео: DVDRip
Аудио #1: 44.100 kHz, MPEG Layer 3, 2 ch, 128.00 kbps avg
Профессиональный (полное дублирование со вставками любительского двухголосого на расширенные места)
Аудио #2: 44,1 kHz, AC3 Dolby Digital, 2/0 (L,R) ch, 256 kbps
Профессиональный (полное дублирование без перевода на расширенные места) Расширенная версия была получена путем врезания удаленных и расширенных сцен на свои места.

Удаленные сцены

1) сцена: где Анна бьет "бывшую подругу" по лицу.
2) альтернативная концовка: где дедушка и внук меняются телами.
3) заменена сцена с титрами под песню Lindsay Lohan - Ultimate на коллекцию смешных дублей под эту же песню.
4) бонусом вставлен клип Christina Vidal - Take Me Away, представляющий собой набор сцен из фильма + со съемок-репетиций.
Добавленные сцены отличаются по качеству видео от самого фильма.

MediaInfo

Общее
Полное имя : E:\торренты на раздаче\Чумовая пятница [расширенная альтернативная версия].avi
Формат : AVI
Формат/Информация : Audio Video Interleave
Размер файла : 1,67 Гбайт
Продолжительность : 1 ч. 32 м.
Общий поток : 2592 Кбит/сек
Программа кодирования : VirtualDubMod 1.5.10.2 (build 2540/release)
Библиотека кодирования : VirtualDubMod build 2540/release
Видео
Идентификатор : 0
Формат : MPEG-4 Visual
Профиль формата : Advanced [email protected]
Параметр BVOP формата : 1
Параметр QPel формата : Нет
Параметр GMC формата : Без точки перехода
Параметр матрицы формата : Default (H.263)
Режим смешивания : Сжатый битовый поток
Идентификатор кодека : XVID
Идентификатор кодека/Подсказка : XviD
Продолжительность : 1 ч. 32 м.
Битрейт : 2190 Кбит/сек
Ширина : 720 пикселей
Высота : 384 пикселя
Соотношение сторон : 1,85:1
Частота кадров : 29,970 кадров/сек
Цветовое пространство : YUV
Субдискретизация насыщенности : 4:2:0
Битовая глубина : 8 бит
Тип развёртки : Прогрессивная
Метод сжатия : С потерями
Бит/(Пиксели*Кадры) : 0.264
Размер потока : 1,41 Гбайт (85%)
Библиотека кодирования : XviD 1.2.1 (UTC 2008-12-04)
Аудио #1
Идентификатор : 1
Формат : MPEG Audio
Версия формата : Version 1
Профиль формата : Layer 3
Режим : Joint stereo
Расширение режима : MS Stereo
Идентификатор кодека : 55
Идентификатор кодека/Подсказка : MP3
Продолжительность : 1 ч. 32 м.
Вид битрейта : Постоянный
Битрейт : 128 Кбит/сек
Каналы : 2 канала
Частота : 44,1 КГц
Метод сжатия : С потерями
Размер потока : 84,6 Мбайт (5%)
Выравнивание : Разделение по промежуткам
Продолжительность промежутка : 33 мс. (1,00 видеокадр)
Время предзагрузки промежутка : 500 мс.
Аудио #2
Идентификатор : 2
Формат : AC-3
Формат/Информация : Audio Coding 3
Расширение режима : CM (complete main)
Параметр Endianness формата : Big
Идентификатор кодека : 2000
Продолжительность : 1 ч. 32 м.
Вид битрейта : Постоянный
Битрейт : 256 Кбит/сек
Каналы : 2 канала
Расположение каналов : Front: L R
Частота : 44,1 КГц
Битовая глубина : 16 бит
Метод сжатия : С потерями
Размер потока : 169 Мбайт (10%)
Выравнивание : Соединение по промежуткам
Продолжительность промежутка : 35 мс. (1,04 видеокадр)
Время предзагрузки промежутка : 522 мс.
Скриншоты:
Время раздачи: по возможности 24/7

[Цитировать]



Показать сообщения:    

Текущее время: 04-Дек 23:20

Часовой пояс: UTC + 3


Вы не можете начинать темы
Вы не можете отвечать на сообщения
Вы не можете редактировать свои сообщения
Вы не можете удалять свои сообщения
Вы не можете голосовать в опросах
Вы не можете прикреплять файлы к сообщениям
Вы не можете скачивать файлы

!ВНИМАНИЕ!
Сайт не предоставляет электронные версии произведений, а занимается лишь коллекционированием и каталогизацией ссылок, присылаемых и публикуемых на форуме нашими читателями. Если вы являетесь правообладателем какого-либо представленного материала и не желаете, чтобы ссылка на него находилась в нашем каталоге, свяжитесь с нами, и мы незамедлительно удалим ее. Файлы для обмена на трекере предоставлены пользователями сайта, и администрация не несет ответственности за их содержание. Просьба не заливать файлы, защищенные авторскими правами, а также файлы нелегального содержания!