[ Сегодня идет свободное скачивание без начисления Download ]


Статистика раздачи
Нет
 
   
 
 
 
-Невероятный Бёрт Уандерстоун / The Incredible Burt Wonderstone (2013) BDRip- Русское название: Невероятный Бёрт Уандерстоун
Оригинальное название: The Incredible Burt Wonderstone
Год выпуска: 2013
Производство: США - BenderSpink, Carousel Productions (II), New Line Cinema
Жанр: Комедия
Перевод: Многоголосый закадровый, профессиональный
Озвучка / Автор перевода: Baibako
Субтитры: Вшитые отключаемые
Язык субтитров: Английский
Режиссер: Дон Скардино / Don Scardino
Актеры: Стив Карелл, Стив Бушеми, Оливия Уайлд, Джим Керри, Джеймс Гандольфини, Алан Аркин, Джей Мор, Михаэль Хербиг, Мэйсон Кук, Люк Ванек, Захари Гордан, Брэд Гэррет, Фиона Хейл, Соня Эдди, Рон Остроу, Джошуа Эренберг и другие ....
Описание фильма:
Фильм рассказывает историю двух фокусников-конкурентов в Лас-Вегасе. Берт Уандерстоун однажды во время исполнения номера лишается напарника, и все оставшееся время пытается вернуть себе мотивацию и вернуться к любимому занятию.

Дата мировой премьеры: 8 марта 2013
Дата выхода DVD релиза: 11 июля 2013, «CP Дистрибуция»
Продолжительность: 01:40:46
Качество видео: BDRip 1080p
Видеокодек: MPEG-4 AVC/H.264
Видео: 9825 Кбит/сек, 1920x800, 23.976 кадр/с
Аудио #1: Русский: MP3, 192 кбит/c, 2.0, 48 kHz - многолосый закадровый
Аудио #2: Английский: DTS, 1536 кбит/c, 5.1, 48 kHz
Сохранены оригинальные чаптеры как на Blu-Ray

Рецензия, отзыв о фильме:

Невероятный Джим Керри!
Данная рецензия пишется, как негодование, связанное с тем, что положительных рецензий на кинопоиске на этот фильм до сих пор нет, а на мой взгляд уже давно пора бы им появиться.
(можно пропустить)
Начну с сюжета — он прост. Маленький Берт, обижаемый своими одноклассниками, и выслушивавший от них, что его никто и никогда не полюбит получает от мамы подарок — набор юного фокусника. Так в его голову приходит мысль о том, что, став фокусником, тебя полюбят все! Затем, случайно или по вполне себе логическому стечению обстоятельств, Берт знакомится с почти таким же изгоем в школе — Антоном. С тех пор они начинают изучать фокусы вместе, и становятся знаменитыми фокусниками, которых действительно любят все.
Но со временем выясняется, что слава делает из Берта *звезда*нутого зазнайку, в то время как Антон остается верен самому себе. Со временем Антон, который уже не в силах терпеть выходки Берта, бросает его, и, как назло, в это же время в городе появляется уличный фокусник, в исполнении Джима Керри, который своими фокусами «взрывает мозги» зрителей. Тут-то Берт и осознает, что без Антона-то оказывается ой как плохо. Он и идеи классные для фокусов придумывал, и боевой дух поддерживал, но самое главное — как друг был просто неоценим. Здесь и начинается основная задумка фильма — попытки Берта вернуть былую славу и расположение друзей.
(пропустили, теперь читаем)
Теперь о хорошем — фильм хороший! Несмотря на то, что сюжет не новаторский (но что есть сюжет в стандартном понимании этого слова?), нам предоставляется вполне себе складная, смешная (!!!), местами немного черная (а где-то и очень черная) комедия. Свои роли отыграли отлично буквально все актеры. Стив Карелл (Берт) вполне себе правдоподобно показал бездушного циника, Стив Бушеми (Антон) — пай-мальчика, а Джим Керри — первоклассного, одержимого славой и просто сумасшедшего на всю голову не столько фокусника и иллюзиониста, сколько сбежавшего из больницы для душевно-больных, но в то же время мастерски продуманного психа.
И если первые два актера лично для меня особого интереса не представляют (вы уж извините, если кто), то впервые, со времен фильма «Брюс Всемогущий» Джим Керри играет так, что смотришь, смеешься, и аж плачешь от счастья, что его энергетика снова вернулась к нему. В таких фильмах, как «Всегда Говори Да», и «Пингвины мистера Поппера», мне казалось, что Джим в некоторых местах словно нехотя выжимает из себя улыбку, а где-то и вовсе будто бы высмеивает фильм, в котором сам же и снимается. Но здесь я наконец-то увидел его искреннюю улыбку, его былую энергию, которой так не хватало в вышеуказанных фильмах. Видя этот факт, хочется только радоваться тому, что Джим согласился на роль в фильме-продолжении «Брюс Всемогущий», и немного печалит, что он все никак не решается на роль в продолжении старой доброй супер-уморительной комедии «Тупой и Еще Тупее».
Тем не менее, подведу вывод — фильм получился. Естественно не шедевр комедийного жанра, так что искатели подобного материала могут сразу отойти в сторонку, но то что это комедия заслуживает того, чтобы ее посмотрели хотя бы один раз — несомненно.
8 из 10

MediaInfo:

Общее
Уникальный идентификатор : 173806061499265861345320930316914986967 (0x82C1D4701D87EF4F90CFBFD7B8430FD7)
Полное имя : D:\Video\The.Incredible.Burt.Wonderstone.BDRip.1080p.dts.mp3.Rus.Eng.mkv
Формат : Matroska
Версия формата : Version 2
Размер файла : 8,07 Гбайт
Продолжительность : 1 ч. 40 м.
Общий поток : 11,5 Мбит/сек
Название фильма : Release from VarMkn
Дата кодирования : UTC 2013-06-08 13:44:51
Программа кодирования : mkvmerge v5.4.0 ('Piper') built on Mar 10 2012 13:34:39
Библиотека кодирования : libebml v1.2.3 + libmatroska v1.3.0
Видео
Идентификатор : 1
Формат : AVC
Формат/Информация : Advanced Video Codec
Профиль формата : [email protected]
Параметр CABAC формата : Да
Параметр ReFrames формата : 5 кадров
Идентификатор кодека : V_MPEG4/ISO/AVC
Продолжительность : 1 ч. 40 м.
Битрейт : 9825 Кбит/сек
Ширина : 1920 пикселей
Высота : 800 пикселей
Соотношение сторон : 2,40:1
Частота кадров : 23,976 кадра/сек
Цветовое пространство : YUV
Субдискретизация насыщенности : 4:2:0
Битовая глубина : 8 бит
Тип развёртки : Прогрессивная
Бит/(Пиксели*Кадры) : 0.267
Размер потока : 6,72 Гбайт (83%)
Заголовок : The Incredible Burt Wonderstone BDRIP 1080p
Библиотека кодирования : x264 core 133 r2334 a3ac64b
Настройки программы : cabac=1 / ref=5 / deblock=1:0:0 / analyse=0x3:0x133 / me=umh / subme=7 / psy=1 / psy_rd=1.00:0.00 / mixed_ref=1 / me_range=16 / chroma_me=1 / trellis=1 / 8x8dct=1 / cqm=0 / deadzone=21,11 / fast_pskip=0 / chroma_qp_offset=-2 / threads=36 / lookahead_threads=6 / sliced_threads=0 / nr=0 / decimate=1 / interlaced=0 / bluray_compat=0 / constrained_intra=0 / bframes=3 / b_pyramid=2 / b_adapt=1 / b_bias=0 / direct=1 / weightb=1 / open_gop=0 / weightp=2 / keyint=250 / keyint_min=23 / scenecut=40 / intra_refresh=0 / rc_lookahead=40 / rc=2pass / mbtree=1 / bitrate=9825 / ratetol=1.0 / qcomp=0.60 / qpmin=0 / qpmax=69 / qpstep=4 / cplxblur=20.0 / qblur=0.5 / ip_ratio=1.40 / aq=1:1.00
Язык : English
Default : Нет
Forced : Нет
Аудио #1
Идентификатор : 2
Формат : MPEG Audio
Версия формата : Version 1
Профиль формата : Layer 3
Режим : Joint stereo
Расширение режима : MS Stereo
Идентификатор кодека : A_MPEG/L3
Идентификатор кодека/Подсказка : MP3
Продолжительность : 1 ч. 40 м.
Вид битрейта : Постоянный
Битрейт : 192 Кбит/сек
Каналы : 2 канала
Частота : 48,0 КГц
Метод сжатия : С потерями
Размер потока : 138 Мбайт (2%)
Заголовок : Russian MP3 - 192 kbps - Baibako
Язык : Russian
Default : Нет
Forced : Нет
Аудио #2
Идентификатор : 3
Формат : DTS
Формат/Информация : Digital Theater Systems
Идентификатор кодека : A_DTS
Продолжительность : 1 ч. 40 м.
Вид битрейта : Постоянный
Битрейт : 1510 Кбит/сек
Каналы : 6 каналов
Расположение каналов : Front: L C R, Side: L R, LFE
Частота : 48,0 КГц
Битовая глубина : 24 бит
Метод сжатия : С потерями
Размер потока : 1,06 Гбайт (13%)
Заголовок : DTS 1536kbps - DD 5.1
Язык : English
Default : Нет
Forced : Нет
Текст
Идентификатор : 4
Формат : UTF-8
Идентификатор кодека : S_TEXT/UTF8
Идентификатор кодека/Информация : UTF-8 Plain Text
Заголовок : English Subtitlies
Язык : English
Default : Нет
Forced : Нет
Меню
00:00:00.000 : en:Chapter 1
00:08:08.404 : en:Chapter 2
00:19:56.445 : en:Chapter 3
00:30:13.144 : en:Chapter 4
00:39:53.307 : en:Chapter 5
00:49:46.149 : en:Chapter 6
01:00:48.227 : en:Chapter 7
01:10:29.141 : en:Chapter 8
01:19:53.163 : en:Chapter 9
01:30:04.399 : en:Chapter 10
01:40:17.803 : en:Chapter 11
Скриншоты:


Время раздачи: с 10:00 до 20:00 (GMT+2) - до 15 скачавших

[Цитировать]

Топик был перенесен из форума Новинки кинопроката (HD Video) в форум Сцен рипы
Bootch



Показать сообщения:    

Текущее время: 04-Дек 11:18

Часовой пояс: UTC + 3


Вы не можете начинать темы
Вы не можете отвечать на сообщения
Вы не можете редактировать свои сообщения
Вы не можете удалять свои сообщения
Вы не можете голосовать в опросах
Вы не можете прикреплять файлы к сообщениям
Вы не можете скачивать файлы

!ВНИМАНИЕ!
Сайт не предоставляет электронные версии произведений, а занимается лишь коллекционированием и каталогизацией ссылок, присылаемых и публикуемых на форуме нашими читателями. Если вы являетесь правообладателем какого-либо представленного материала и не желаете, чтобы ссылка на него находилась в нашем каталоге, свяжитесь с нами, и мы незамедлительно удалим ее. Файлы для обмена на трекере предоставлены пользователями сайта, и администрация не несет ответственности за их содержание. Просьба не заливать файлы, защищенные авторскими правами, а также файлы нелегального содержания!