[ Сегодня идет свободное скачивание без начисления Download ]


Статистика раздачи
Нет
 
   
 
Top  
 
 
-Невероятный Бёрт Уандерстоун / The Incredible Burt Wonderstone (2013) BDRemux- Русское название: Невероятный Бёрт Уандерстоун
Оригинальное название: The Incredible Burt Wonderstone
Год выпуска: 2013
Производство: BenderSpink / New Line Cinema [США]
Жанр: Комедия
Перевод: Многоголосый закадровый, профессиональный
Озвучка / Автор перевода: Baibako
Субтитры: Вшитые отключаемые
Язык субтитров: Английский
Режиссер: Дон Скардино / Don Scardino
Продюсер: Крис Бендер, Стив Карелл, Тайлер Митчелл
Актеры: Стив Карелл, Стив Бушеми, Оливия Уайлд, Джим Керри, Джеймс Гандольфини, Алан Аркин, Джей Мор, Михаэль Хербиг, Мэйсон Кук, Люк Ванек, Захари Гордан, Брэд Гэррет, Фиона Хейл, Соня Эдди, Рон Остроу, Джошуа Эренберг
Описание фильма:
Фильм рассказывает историю двух фокусников-конкурентов в Лас-Вегасе. Берт Уандерстоун однажды во время исполнения номера лишается напарника, и все оставшееся время пытается вернуть себе мотивацию и вернуться к любимому занятию.
Дата мировой премьеры: 8 марта 2013
Дата выхода DVD релиза: 11 июля 2013, «CP Дистрибуция»
Дата выхода Blu-Ray релиза: 11 июля 2013, «CP Дистрибуция»

Рейтинг PG-13 - Детям до 13 лет просмотр не желателен
Продолжительность: 01:40:18
Качество видео: BDRemux 1080p
Видео: MPEG4_AVC/H.264, 1920x1080, ~20011 kbps, 23.976 fps
Аудио 1: AC3 5.1, 384 kbps, 48 kHz [Русский - многоголосый закадровый]
Аудио 2: DTS-HD MA 5.1, 3363 kbps, 48 kHz [Английский - оригинал]

Отчёт MediaInfo

Полное имя : D:\Невероятный.Бёрт.Уандерстоун-The.Incredible.Burt.Wonderstone.(2013).BDRemux.[1080p].mkv
Формат : Matroska
Версия формата : Version 2
Размер файла : 16,7 Гбайт
Продолжительность : 1 ч. 40 м.
Режим общего битрейта : Переменный
Общий поток : 23,8 Мбит/сек
Название фильма : Lelya_K for NNM-Club.ru
Дата кодирования : UTC 2013-06-09 11:05:33
Программа кодирования : mkvmerge v5.7.0 ('The Whirlwind') built on Aug 7 2012 14:11:40
Библиотека кодирования : libebml v1.2.3 + libmatroska v1.3.0
Видео
Идентификатор : 1
Формат : AVC
Формат/Информация : Advanced Video Codec
Профиль формата : High@L4.1
Параметр CABAC формата : Да
Параметр ReFrames формата : 2 кадра
Параметр GOP формата : M=1, N=10
Идентификатор кодека : V_MPEG4/ISO/AVC
Продолжительность : 1 ч. 40 м.
Вид битрейта : Переменный
Битрейт : 21,4 Мбит/сек
Ширина : 1920 пикселей
Высота : 1080 пикселей
Соотношение сторон : 16:9
Режим частоты кадров : Постоянный
Частота кадров : 23,976 кадра/сек
Цветовое пространство : YUV
Субдискретизация насыщенности : 4:2:0
Битовая глубина : 8 бит
Тип развёртки : Прогрессивная
Бит/(Пиксели*Кадры) : 0.430
Размер потока : 15,0 Гбайт (90%)
Заголовок : The.Incredible.Burt.Wonderstone.(2013).BDRemux.[1080p]
Язык : English
Default : Да
Forced : Нет
Аудио #1
Идентификатор : 2
Формат : AC-3
Формат/Информация : Audio Coding 3
Расширение режима : CM (complete main)
Параметр Endianness формата : Big
Идентификатор кодека : A_AC3
Продолжительность : 1 ч. 40 м.
Вид битрейта : Постоянный
Битрейт : 384 Кбит/сек
Каналы : 6 каналов
Расположение каналов : Front: L C R, Side: L R, LFE
Частота : 48,0 КГц
Битовая глубина : 16 бит
Метод сжатия : С потерями
Размер потока : 275 Мбайт (2%)
Заголовок : AC3 5.1 / 384 kbps
Язык : Russian
Default : Да
Forced : Нет
Аудио #2
Идентификатор : 3
Формат : DTS
Формат/Информация : Digital Theater Systems
Профиль формата : MA / Core
Идентификатор кодека : A_DTS
Продолжительность : 1 ч. 40 м.
Вид битрейта : Переменный
Битрейт : 1561 Кбит/сек / 1510 Кбит/сек
Каналы : 6 каналов
Расположение каналов : Front: L C R, Side: L R, LFE
Частота : 48,0 КГц
Битовая глубина : 24 бит
Метод сжатия : Без потерь / Lossy
Заголовок : DTS-HD MA 5.1 / 3363 kbps
Язык : English
Default : Нет
Forced : Нет
Текст
Идентификатор : 4
Формат : PGS
Идентификатор кодека : S_HDMV/PGS
Идентификатор кодека/Информация : The same subtitle format used on BDs/HD-DVDs
Язык : English
Default : Нет
Forced : Нет
Меню
00:00:00.000 : en:Chapter 1
00:08:08.405 : en:Chapter 2
00:19:56.445 : en:Chapter 3
00:30:13.145 : en:Chapter 4
00:39:53.308 : en:Chapter 5
00:49:46.150 : en:Chapter 6
01:00:48.228 : en:Chapter 7
01:10:29.142 : en:Chapter 8
01:19:53.162 : en:Chapter 9
01:30:04.399 : en:Chapter 10
Скриншоты:


Время раздачи: 24/7 (до 10 скачавших)

[Цитировать]

Топик был перенесен из форума Новинки кинопроката (HD Video) в форум Зарубежное кино (HD Video)
Bootch



Показать сообщения:    

Текущее время: 07-Дек 23:20

Часовой пояс: UTC + 3


Вы не можете начинать темы
Вы не можете отвечать на сообщения
Вы не можете редактировать свои сообщения
Вы не можете удалять свои сообщения
Вы не можете голосовать в опросах
Вы не можете прикреплять файлы к сообщениям
Вы не можете скачивать файлы

!ВНИМАНИЕ!
Сайт не предоставляет электронные версии произведений, а занимается лишь коллекционированием и каталогизацией ссылок, присылаемых и публикуемых на форуме нашими читателями. Если вы являетесь правообладателем какого-либо представленного материала и не желаете, чтобы ссылка на него находилась в нашем каталоге, свяжитесь с нами, и мы незамедлительно удалим ее. Файлы для обмена на трекере предоставлены пользователями сайта, и администрация не несет ответственности за их содержание. Просьба не заливать файлы, защищенные авторскими правами, а также файлы нелегального содержания!