[ Сегодня идет свободное скачивание без начисления Download ]


Статистика раздачи
Нет
 
   
 
Top  
 
 
-Джек – покоритель великанов / Jack the Giant Slayer (2013) BDRip
«If you think you know the story, you don't know Jack.»
- Русское название: Джек – покоритель великанов
Оригинальное название: Jack the Giant Slayer
Год выпуска: 2013
Производство: Warner Bros. Pictures / New Line Cinema / Original Film [США]
Жанр: Фэнтези, Приключения
Перевод: Дублированный [чистый звук]
Субтитры: Вшитые отключаемые
Язык субтитров: Английский
Режиссер: Брайан Сингер
Продюсер: Дэвид Добкин, Ори Мармур, Патрик МакКормик
Актеры: Николас Холт, Элинор Томлинсон, Юэн МакГрегор, Стэнли Туччи, Иэн МакШейн, Билл Найи, Джон Кассир, Бен Дэниелс, Юэн Бремнер, Эдди Марсан
Описание фильма:
История начинается с похищения принцессы, что грозит нарушить хрупкий мир между людьми и великанами. Юный фермер возглавляет вылазку в царство гигантов в надежде спасти девушку.
Дата мировой премьеры: 1 марта 2013
Дата российской премьеры: 21 марта 2013, «Каро-Премьер»
Дата выхода DVD релиза: 20 июня 2013, «CP Дистрибуция»
Дата выхода Blu-Ray релиза: 20 июня 2013, «CP Дистрибуция»

Рейтинг PG-13 - Детям до 13 лет просмотр не желателен
Возраст 12+ - Зрителям, достигшим 12 лет
Продолжительность: 01:54:21
Качество видео: BDRip 1080p
Видео: MPEG4_AVC/H.264, 1920x1080, ~11200 kbps, 23.976 fps, 0.226 bit/pixel
Аудио 1: AC3 5.1, 448 kbps, 48 kHz [Русский - дублированный]
Аудио 2: DTS 5.1, 1510 kbps, 48 kHz [Английский - оригинал]

Отчёт MediaInfo

Полное имя : D:\Джек.покоритель.великанов-Jack.the.Giant.Slayer.(2013).BDRip.[1080p].3D.(crop).mkv
Формат : Matroska
Версия формата : Version 2
Размер файла : 10,7 Гбайт
Продолжительность : 1 ч. 54 м.
Общий поток : 13,5 Мбит/сек
Название фильма : Jack The Giant Slayer (2013)
Дата кодирования : UTC 2013-06-08 04:33:15
Программа кодирования : mkvmerge v5.7.0 ('The Whirlwind') built on Aug 7 2012 14:11:40
Библиотека кодирования : libebml v1.2.3 + libmatroska v1.3.0
Видео
Идентификатор : 1
Формат : AVC
Формат/Информация : Advanced Video Codec
Профиль формата : High@L4.0
Параметр CABAC формата : Да
Параметр ReFrames формата : 4 кадра
Идентификатор кодека : V_MPEG4/ISO/AVC
Продолжительность : 1 ч. 54 м.
Битрейт : 11,2 Мбит/сек
Ширина : 1920 пикселей
Высота : 1080 пикселей
Соотношение сторон : 16:9
Режим частоты кадров : Постоянный
Частота кадров : 23,976 кадра/сек
Цветовое пространство : YUV
Субдискретизация насыщенности : 4:2:0
Битовая глубина : 8 бит
Тип развёртки : Прогрессивная
Бит/(Пиксели*Кадры) : 0.226
Размер потока : 8,97 Гбайт (83%)
Библиотека кодирования : x264 core 120 r2145 748fe16
Настройки программы : cabac=1 / ref=4 / deblock=1:-3:-3 / analyse=0x3:0x113 / me=umh / subme=9 / psy=1 / psy_rd=1.00:0.00 / mixed_ref=1 / me_range=16 / chroma_me=1 / trellis=2 / 8x8dct=1 / cqm=0 / deadzone=21,11 / fast_pskip=1 / chroma_qp_offset=-2 / threads=9 / sliced_threads=0 / nr=0 / decimate=1 / interlaced=0 / bluray_compat=0 / constrained_intra=0 / bframes=6 / b_pyramid=2 / b_adapt=2 / b_bias=0 / direct=3 / weightb=1 / open_gop=0 / weightp=2 / keyint=250 / keyint_min=23 / scenecut=40 / intra_refresh=0 / rc_lookahead=60 / rc=crf / mbtree=1 / crf=17.0 / qcomp=0.60 / qpmin=1 / qpmax=69 / qpstep=4 / ip_ratio=1.40 / aq=1:1.00
Язык : English
Default : Да
Forced : Нет
Аудио #1
Идентификатор : 2
Формат : AC-3
Формат/Информация : Audio Coding 3
Расширение режима : CM (complete main)
Параметр Endianness формата : Big
Идентификатор кодека : A_AC3
Продолжительность : 1 ч. 54 м.
Вид битрейта : Постоянный
Битрейт : 448 Кбит/сек
Каналы : 6 каналов
Расположение каналов : Front: L C R, Side: L R, LFE
Частота : 48,0 КГц
Битовая глубина : 16 бит
Метод сжатия : С потерями
Размер потока : 366 Мбайт (3%)
Язык : Russian
Default : Да
Forced : Нет
Аудио #2
Идентификатор : 3
Формат : DTS
Формат/Информация : Digital Theater Systems
Идентификатор кодека : A_DTS
Продолжительность : 1 ч. 54 м.
Вид битрейта : Постоянный
Битрейт : 1510 Кбит/сек
Каналы : 6 каналов
Расположение каналов : Front: L C R, Side: L R, LFE
Частота : 48,0 КГц
Битовая глубина : 24 бит
Метод сжатия : С потерями
Размер потока : 1,21 Гбайт (11%)
Язык : English
Default : Нет
Forced : Нет
Текст
Идентификатор : 4
Формат : UTF-8
Идентификатор кодека : S_TEXT/UTF8
Идентификатор кодека/Информация : UTF-8 Plain Text
Язык : English
Default : Нет
Forced : Нет
Меню
00:00:00.000 : en:00:00:00.000
00:10:21.371 : en:00:10:21.371
00:19:23.746 : en:00:19:23.746
00:29:52.207 : en:00:29:52.207
00:38:55.375 : en:00:38:55.375
00:49:24.879 : en:00:49:24.879
00:59:35.489 : en:00:59:35.489
01:09:26.287 : en:01:09:26.287
01:20:39.168 : en:01:20:39.168
01:29:51.303 : en:01:29:51.303
01:39:02.812 : en:01:39:02.812
01:45:57.726 : en:01:45:57.726

Дополнительно

Внимание! Справа и слева у видеоряда обрезано по 248р, что дает возможность просмотра на полный экран (без черных полос) на телевизорах с соотношением сторон 16:9 без изменения пропорций.
Скриншоты:


Время раздачи: 24/7 (до 10 скачавших)

[Цитировать]



Показать сообщения:    

Текущее время: 10-Дек 02:14

Часовой пояс: UTC + 3


Вы не можете начинать темы
Вы не можете отвечать на сообщения
Вы не можете редактировать свои сообщения
Вы не можете удалять свои сообщения
Вы не можете голосовать в опросах
Вы не можете прикреплять файлы к сообщениям
Вы не можете скачивать файлы

!ВНИМАНИЕ!
Сайт не предоставляет электронные версии произведений, а занимается лишь коллекционированием и каталогизацией ссылок, присылаемых и публикуемых на форуме нашими читателями. Если вы являетесь правообладателем какого-либо представленного материала и не желаете, чтобы ссылка на него находилась в нашем каталоге, свяжитесь с нами, и мы незамедлительно удалим ее. Файлы для обмена на трекере предоставлены пользователями сайта, и администрация не несет ответственности за их содержание. Просьба не заливать файлы, защищенные авторскими правами, а также файлы нелегального содержания!