[ Сегодня идет свободное скачивание без начисления Download ]


Статистика раздачи
Нет
 
   
 
Top  
 
 
-Мулан / Hua Mulan (2009) BDRip-- Год выпуска: 2009
Страна: США, Китай
Производство: Starlight International Media Group, Hunan TV & Broadcast Intermediary, PKU Starlight Group...
Жанр: драма, мелодрама, приключения, военный-Режиссер: Джингл Ма, Вэй Донг
Актеры: Чжао Вэй, Витас, Чэнь Кунь, Ху Цзюнь, Джейси Чан, Ю Рон Гуан, Джиао Ксу, Сунь Чжоу, Йойо Лю, Мин Ксу, Чаншэн Лю ...-Перевод: Многоголосый закадровый
Субтитры: Отсутствуют-Описание фильма: Это легенда о женщине, которая готова отдать свою единственную любовь, жизнь ради своей родины. Несколько столетий назад император издал указ, по которому каждая семья должна предоставить одного солдата в действующую армию.
У семьи Хуа нет наследника мужского пола и по закону в армию должен идти стареющий отец. В место того, чтобы посылать отца на верную смерть его дочь Мулан, маскируется под мужчину и занимает его место.-
Дата мировой премьеры: 26 ноября 2009
Дата выхода DVD релиза: 9 декабря 2010, «Парадиз Медиа»
Дата выхода Blu-Ray релиза: 3 февраля 2011, «Парадиз Медиа»
-Качество: BDRip| Sample
Продолжительность: 01:54:11 часа
Формат: AVI
Видео кодек: XviD
Аудио кодек: AC3
Видео: 720x304 (2,35:1), 24.000 fps, XviD MPEG-4 ~1822 Kbps avg, 0.347 bit/pixel
Audio 1: 48 kHz, AC3 (6 ch), 448 kbps avg русский
Audio 2: 48 kHz, AC3 (6 ch), 448 kbps, китайский

MediaInfo:

General
Complete name                            : :\\Hua.Mulan.2009.ВDRip.avi
Format                                   : AVI
Format/Info                              : Audio Video Interleave
Format profile                           : OpenDML
File size                                : 2.18 GiB
Duration                                 : 1h 54mn
Overall bit rate                         : 2 735 Kbps
Movie name                               : Mulan.2009.DUAL.BDRip.XviD.AC3.-HQCLUB
Writing application                      : VirtualDubModRus 1.5.10.2 (build 2542/release)
Copyright                                : HQCLUB
Video
ID                                       : 0
Format                                   : MPEG-4 Visual
Format profile                           : Advanced Simple@L5
Format settings, BVOP                    : 1
Format settings, QPel                    : No
Format settings, GMC                     : No warppoints
Format settings, Matrix                  : Custom
Codec ID                                 : XVID
Codec ID/Hint                            : XviD
Duration                                 : 1h 54mn
Bit rate                                 : 1 822 Kbps
Width                                    : 720 pixels
Height                                   : 304 pixels
Display aspect ratio                     : 2.35:1
Frame rate                               : 24.000 fps
Color space                              : YUV
Chroma subsampling                       : 4:2:0
Bit depth                                : 8 bits
Scan type                                : Progressive
Compression mode                         : Lossy
Bits/(Pixel*Frame)                       : 0.347
Stream size                              : 1.45 GiB (67%)
Writing library                          : XviD 57
Audio #1
ID                                       : 1
Format                                   : AC-3
Format/Info                              : Audio Coding 3
Mode extension                           : CM (complete main)
Format settings, Endianness              : Big
Codec ID                                 : 2000
Duration                                 : 1h 54mn
Bit rate mode                            : Constant
Bit rate                                 : 448 Kbps
Channel(s)                               : 6 channels
Channel positions                        : Front: L C R, Side: L R, LFE
Sampling rate                            : 48.0 KHz
Bit depth                                : 16 bits
Compression mode                         : Lossy
Stream size                              : 365 MiB (16%)
Alignment                                : Split accross interleaves
Interleave, duration                     : 42 ms (1.00 video frame)
Interleave, preload duration             : 500 ms
Audio #2
ID                                       : 2
Format                                   : AC-3
Format/Info                              : Audio Coding 3
Mode extension                           : CM (complete main)
Format settings, Endianness              : Big
Codec ID                                 : 2000
Duration                                 : 1h 54mn
Bit rate mode                            : Constant
Bit rate                                 : 448 Kbps
Channel(s)                               : 6 channels
Channel positions                        : Front: L C R, Side: L R, LFE
Sampling rate                            : 48.0 KHz
Bit depth                                : 16 bits
Compression mode                         : Lossy
Stream size                              : 366 MiB (16%)
Alignment                                : Split accross interleaves
Interleave, duration                     : 42 ms (1.00 video frame)
Interleave, preload duration             : 500 ms
Скриншоты: Время раздачи: 24/7 до первых 3-х скачавших

[Цитировать]



Показать сообщения:    

Текущее время: 10-Дек 19:39

Часовой пояс: UTC + 3


Вы не можете начинать темы
Вы не можете отвечать на сообщения
Вы не можете редактировать свои сообщения
Вы не можете удалять свои сообщения
Вы не можете голосовать в опросах
Вы не можете прикреплять файлы к сообщениям
Вы не можете скачивать файлы

!ВНИМАНИЕ!
Сайт не предоставляет электронные версии произведений, а занимается лишь коллекционированием и каталогизацией ссылок, присылаемых и публикуемых на форуме нашими читателями. Если вы являетесь правообладателем какого-либо представленного материала и не желаете, чтобы ссылка на него находилась в нашем каталоге, свяжитесь с нами, и мы незамедлительно удалим ее. Файлы для обмена на трекере предоставлены пользователями сайта, и администрация не несет ответственности за их содержание. Просьба не заливать файлы, защищенные авторскими правами, а также файлы нелегального содержания!