[ Сегодня идет свободное скачивание без начисления Download ]


Статистика раздачи
Качаю: [ 1 ]
 
   
 
Top  
 
 
-[sh]Черепашки-ниндзя: Антология / Teenage Mutant Ninja Turtles: Аnthology (1987-2007) DVDRip[/sh]- Год выпуска: 1987-2007
Cтрана: США
Производство: Fred Wolf Films
Жанр: Мультфильм, фантастика, комедия, детектив, приключения
Режиссер: Билл Вульф, Тони Лав, Майк Стюарт, Рой Бурдин, Чак Паттон, Кевин Манро
В главных ролях: Кэм Кларк, Таунсенд Коулмэн, Рене Якобс, Бэрри Гордон, Питер Ренадэй, Джим Каммингс, Роб Полсен, Пэт Фрэли, Джеймс Эйври, Дженнифер Дарлинг...
Перевод: Дублированный / Многоголосый закадровый, профессиональный
Субтитры: Отсутствуют
Описание: Обожаемая детьми во всем мире героическая четверка, полная неукротимой энергии, отправляется в мультприключения, расправляясь с негодяями, выслеживая злодеев и поглощая пиццу в безостановочном темпе.- -Продолжительность: ~ 120:00:00
Качество видео: DVDRip-Видеокодек: Xvid, DivX 4, MPEG-4 AVC/H.264
Битрейт видео: ~2230 kbps avg
Размер кадра: 512х384 (1,3 сезон из 10), 640х480 (2-10 сезон из 10) / 720x528 (1 - 7 сезон из 7) / 720x304 (Мультфильм)
Качество видео: DVDRip
Аудиокодек: MP3, ААС, АС3

Описания мультфильмов:

[sh]Черепашки мутанты ниндзя (1-10 сезон из 10)/ Teenage Mutant Ninja Turtles (1987-1996) DVDRip[/sh]- Русское название: Черепашки мутанты ниндзя
Оригинальное название: Teenage Mutant Ninja Turtles
Страна: США
Жанр: Мультфильм, фантастика, комедия, детектив, приключения
Год выпуска: 1987-1996-Рeжиссёр: Билл Вульф, Тони Лав, Майк Стюарт
Роли озвучивали: Кэм Кларк, Таунсенд Коулмэн, Рене Якобс, Бэрри Гордон, Питер Ренадэй, Роб Полсен, Пэт Фрэли, Джеймс Эйври, Дженнифер Дарлинг, Джим Каммингс ...-Oписaние: Обожаемая детьми во всем мире героическая четверка,
полная неукротимой энергии, отправляется в мультприключения, расправляясь с негодяями,
выслеживая злодеев и поглощая пиццу в безостановочном темпе.- -Перeвод:Профессиональный (полное дублирование) - [телеканал 2х2]
Профессиональный (полное дублирование) - [Екатеринбург Арт]
Профессиональный (многоголосый, закадровый) - [ТвинСПБ]
Профессиональный (двухголосый) - [ТЕТ]
Субтитры: Нет-Прoдoлжительность: 193 x ~ 00:22:51
Качество: DVDRip-Формат: AVI
Размеры кадра: 512х384 (1,3 сезон из 10), 640х480 (2-10 сезон из 10)
Видео: 23,976 fps, DivX 4, ~953 kbps avg, 0.19 bit/pixel
Аудио #1: 48.0 kHz, MPEG Layer 3, 2/0 (L,R) ch, ~128 kbps
Аудио #2: 48.0 kHz, MPEG Layer 3, 2/0 (L,R) ch, ~128 kbps

MediaInfo

Формат : AVI
Формат/Информация : Audio Video Interleave
Размер файла : 196 Мбайт
Продолжительность : 22 м.
Общий поток : 1223 Кбит/сек
Программа кодирования : VirtualDubModRus 1.5.10.2 (build 2542/release)
Библиотека кодирования : VirtualDubMod build 2542/release
Видео
Идентификатор : 0
Формат : MPEG-4 Visual
Профиль формата : Advanced Simple@L5
Параметр BVOP формата : 2
Параметр QPel формата : Нет
Параметр GMC формата : Без точки перехода
Параметр матрицы формата : Default (H.263)
Режим смешивания : Сжатый битовый поток
Идентификатор кодека : DIVX
Идентификатор кодека/Информация : Project Mayo
Идентификатор кодека/Подсказка : DivX 4
Продолжительность : 22 м.
Битрейт : 953 Кбит/сек
Ширина : 640 пикселей
Высота : 480 пикселей
Соотношение сторон : 3:2
Соотношение сторон в оригинале : 4:3
Частота кадров : 23,976 кадра/сек
Цветовое пространство : YUV
Субдискретизация насыщенности : 4:2:0
Битовая глубина : 8 бит
Тип развёртки : Прогрессивная
Метод сжатия : С потерями
Бит/(Пиксели*Кадры) : 0.129
Размер потока : 153 Мбайт (78%)
Библиотека кодирования : XviD 1.1.0 (UTC 2005-11-22)
Аудио #1
Идентификатор : 1
Формат : MPEG Audio
Версия формата : Version 1
Профиль формата : Layer 3
Идентификатор кодека : 55
Идентификатор кодека/Подсказка : MP3
Продолжительность : 22 м.
Вид битрейта : Постоянный
Битрейт : 128 Кбит/сек
Каналы : 2 канала
Частота : 48,0 КГц
Метод сжатия : С потерями
Размер потока : 20,5 Мбайт (10%)
Выравнивание : Соединение по промежуткам
Продолжительность промежутка : 42 мс. (1,00 видеокадр)
Время предзагрузки промежутка : 504 мс.
Библиотека кодирования : LAME3.98b
Настройки программы : -m s -V 4 -q 2 -lowpass 17 -b 128
Аудио #2
Идентификатор : 2
Формат : MPEG Audio
Версия формата : Version 1
Профиль формата : Layer 3
Режим : Joint stereo
Расширение режима : MS Stereo
Идентификатор кодека : 55
Идентификатор кодека/Подсказка : MP3
Продолжительность : 22 м.
Вид битрейта : Постоянный
Битрейт : 128 Кбит/сек
Каналы : 2 канала
Частота : 48,0 КГц
Метод сжатия : С потерями
Размер потока : 20,5 Мбайт (10%)
Выравнивание : Разделение по промежуткам
Продолжительность промежутка : 42 мс. (1,00 видеокадр)
Время предзагрузки промежутка : 500 мс.
Библиотека кодирования : LAME3.97 (beta)

Список серий:

Сезон 1 (1987) Начало Серии 1-5
1.По следу черепах (Turtle Tracks)
2.Первая встреча со Шреддером (Enter the Shredder)
3.Кое-что о крысах (A Thing About Rats)
4.Жители Измерения «Икс» появляются на Земле (Hot Rodding Teenagers from Dimension X)
5.Очередное поражение Шреддера и Кренга (Shredder & Splintered)
Сезон 2 (1988) Начало Серии 6-18
6.Возвращение Шредера (Return of the Shredder)
7.Очень маленькие черепашки (The Incredible Shrinking Turtles)
8.Оно явилось из канализации (It Came from Beneath the Sewers)
9.Взбесившиеся машины (The Mean Machines)
10.Проклятье злого глаза (Curse of the Evil Eye)
11.Пиццы-убийцы (Case of the Killer Pizzas)
12.Муха по имени Бакстер (Enter: The Fly)
13.Вторжение лягушек-панков (Invasion of the Punk Frogs)
14.Больше не Сплинтер (Splinter No More)
15.Самый блистательный в Нью-Йорке (New York’s Shiniest)
16.Тинэйджеры из измерения «Икс» (Teenagers from Dimension X)
17.Кошка с Шестого канала (The Cat Woman from Channel Six)
18.Возвращение Технодрома (Return of the Technodrome)
Сезон 3 (1989) Начало Серии 19-65
19.Глубоко под землёй (Beneath These Streets)
20.Черепашки из зала суда (Turtles on Trial)
21.Атака 50-футовой Ирмы (Attack of the 50-Foot Irma)
22.Черепашки против мафии (The Maltese Hamster)
23.Небесные черепашки (Sky Turtles)
24.Старый переключатель (The Old Switcheroo)
25.Блюз Берна (Burne's Blues)
26.Пятая черепашка (The Fifth Turtle)
27.Король крыс (Enter the Rat King)
28.Черепашки в центре Земли (Turtles At the Earth's Core)
29.Розыгрыш Эйприл (April's Fool)
30.Атака Биг Мака (Attack of Big MACC)
31.Меч ниндзя из ниоткуда (The Ninja Sword of Nowhere)
32.20.000 лье под городом (20,000 Leaks Under the City)
33.Великое оледенение (Take Me To Your Leader)
34.Четыре черепашки мушкетёра (Four Musketurtles)
35.Черепашки, везде черепашки (Turtles, Turtles Everywhere)
36.Кавабанга, Шреддоголовый (Cowabunga ShredHead)
37.Вторжение похитителей черепашек (Invasion of the Turtle Snatchers)
38.Исчезновение черепашек (Camera Bugged)
39.Возвращение мухи (Return of the Fly)
40.Пицца с сюрпризом (Green with Jealousy)
41.Сражение с дубоголовым (Casey Jones - Outlaw Hero)
42.Мутагеновый монстр (Mutagen Monster)
43.Налётчики из измерения «Икс» (Corporate Raiders from Dimension X)
44.Пицца по — Шреддоровски (Pizza by the Shred)
45.Супер Рокстеди и могучий Бибоп (Super Bebop and Mighty Rocksteady)
46.Осторожно, Лотос! (Beware the Lotus)
47.Проклятие из прошлого (Blast from the Past)
48.Черепашки против Кожеголового (Leatherhead - Terror of the Swamp)
49.День рождения Микеланджело (Michaelangelo's Birthday)
50.Гость из прошлого (Usagi Yojimbo)
51.Дело о крутом кимоно (Case of the Hot Kimono)
52.Вернись домой! (Usagi Come Home)
53.Сотворение Металлической головы (The Making of MetalHead)
54.Кожеголовый встречает Короля Крыс (Leatherhead Meets the Rat King)
55.Черепашки против Терминатора Черепашек (The Turtle Terminator)
56.Великий Болдини (The Great Boldini)
57.Потерянная карта (The Missing Map)
58.Банда в сборе (The Gang's All Here)
59.Грибикс (The Grybyx)
60.Мистер Огг идёт в город (Mister Ogg Goes to Town)
61.Шреддервиль (Shredderville)
62.Черепашки против мухи (Bye, Bye, Fly)
63.Большое ограбление (The Big Rip Off)
64.Большой взлом (The Big Break-In)
65.Большие беспорядки (The Big Blow Out)
Сезон 4 (1990) Начало Серии 66-104
66.Вторжение из космоса (Plan 6 from Outer Space)
67.Приключения в джунглях (Turtles of the Jungle)
68.Микеланджело в мире игрушек (Michaelangelo Toys Around)
69.Китайские черепахи (Peking Turtle)
70.Мамочка Шреддера (Shredder’s Mom)
71.Черепашки и малышка (Four Turtles and a Baby)
72.Сумасшедший коллекционер (Turtlemaniac)
73.Рондо в Нью-Йорке (Rondo in New York)
74.Планета черепах (Planet of the Turtles)
75.Великая сила музыки (Name That Toon)
76.Осторожно, опасность! (Menace, Maestro Please)
77.Супер-герой на день (Super Hero for a Day)
78.Назад в детство (Back to the Egg)
79.Возвращение гигантской мухи (Son of Return of the Fly II)
80.Великолепный спектакль Рафаэля (Raphael Knocks’em Dead)
81.Бибоп и Рокстеди завоёвывают Вселенную (Bebop and Rocksteady Conquer the Universe)
82.Рафаэль встречает достойного противника (Raphael Meets His Match)
83.Злая черепаха (Slash — The Evil Turtle from Dimension X)
84.Леонардо становится весёлым (Leonardo Lightens Up)
85.Люди-крысы с Шестого канала (Were-Rats from Channel 6)
86.О том, как Микеланджело уменьшился (Funny, They Shrunk Michaelangelo)
87.Наступление большого Зиппа (The Big Zipp Attack)
88.Донателло останавливает время (Donatello Makes Time)
89.Прощай, цветок лотоса (Farewell, Lotus Blossom)
90.Бунтарь без плавников (Rebel Without a Fin)
91.Человек-Носорог (The Adventures of Rhino-Man)
92.Микеланджело встречает Багмена (Michaelangelo Meets Bugman)
93.Черепашка богач-бедняк (Poor Little Rich Turtle)
94.На что годится Микеланджело? (What’s Michaelangelo Good For?)
95.Приключения в Измерении «Х» (The Dimension X Story)
96.Диплом Донателло (Donatello’s Degree)
97.Грабители брали только запонки (The Big Cufflink Caper!)
98.Леонардо против Темпестры (Leonardo VS Tempestra)
99.Сплинтер пропал (Splinter Vanishes)
100.Это всё из-за Рафаэля (Raphael Drives 'em Wild)
101.За туманностью Донателло (Beyond the Donatello Nebula)
102.Нашествие насекомых (Big Bug Blunder)
103.Бунт ногастых солдат (The Foot Soldiers Are Revolting)
104.Неопознанный летающий Леонардо (Unidentified Flying Leonardo)
Сезон 5 (1991) Начало Серии 105-126
105.Черепашки ниндзя и пасхальный заяц (The Turtles and The Hare)
106.Путешествие на машине времени (Once Upon a Time Machine)
107.Мой брат — преступник (My Brother, the Bad Guy)
108.Микеланджело встречает Мондо Геко (Michaelangelo Meets Mondo Gecko)
109.Человек-мутант (Enter Mutagen Man)
110.Донателло не везёт (Donatello’s Bad Time)
111.Возвращение Человека-мухи (Michaelangelo Meets Bugman Again)
112.Происшествие с мусорщиками (Muckman Messes Up)
113.Наполеон Бонаквак: Болотный гигант (Napoleon Bonafrog: Colossus of the Swamps)
114.Рафаэль против вулкана (Raphael VS the Volcano)
115.Повелитель мух (Landlord of the Flies)
116.Двойник Донателло (Donatello’s Duplicate)
117.Снежный человек — пришелец (The Ice Creature Cometh)
118.Леонардо — освободитель (Leonardo Cuts Loose)
119.Пиратское радио (Pirate Radio)
120.Рафаэль — многоликая черепашка (Turtle of a Thousand Faces)
121.Черепашка Леонардо, спасшая город (Leonardo, Renaissance Turtle)
122.Зак и вторжение инопланетян (Zach and the Alien Invaders)
123.Поляризоиды возвращаются! (Welcome Back, Polarisoids)
124.Священная черепашка Микеланджело (Michaelangelo, the Sacred Turtle)
125.Планета Черепахолоидов. Часть 1 (Planet of the Turtleoids, Part One)
126.Планета Черепахолоидов. Часть 2 (Planet of the Turtleoids, Part Two)
Сезон 6 (1992) Начало Серии 127-142
127.Опять булыжники (Rock Around the Block)
128.Кренг жив! (Krangenstein Lives!)
129.Супер Ирма (Super Irma)
130.Приключения в доме Черепах (Adventures in Turtle-Sitting)
131.Меч Юрикавы (The Sword of Yurikawa)
132.Возвращение Инопланетянина (Return of the Turtleoids)
133.Месть Шреки (Shreeka's Revenge)
134.Горячее дельце (Too Hot to Handle)
135.В Стране кошмаров (Nightmare in the Lair)
136.Призрак сточных труб (Phantom of the Sewers)
137.Донателло против Слэша (Donatello Trashes Slash)
138.Исчезновение Леонардо (Leonardo is Missing)
139.Змеи возвращаются! (Snakes Alive!)
140.Полли хочет пиццу (Polly Wanna Pizza)
141.Пай-Мальчик (Mr. Nice Guy)
142.Сыщик идет по следу (Sleuth on the Loose)
"Путешествие в Европу" (1992-1993) Начало Серии 143-155
143.Отсутствует
144.Ржавчина не дремлет (Rust Never Sleeps)
145.Отсутствует
146.Отсутствует
147.Отсутствует
148.Огненное кольцо (Ring of Fire)
149.Отсутствует
150.Новый меч Шреддера (Shredder's New Sword)
151.Отсутствует
152.Черепашки на "Восточном Экспрессе" (Turtles on the Orient Express)
153.Эйприл в затруднительном положении (April Gets in Dutch)
154.Погасшее северное сияние (Northern Lights Out)
155.Элементарно, черепашонок (Elementary, My Dear Turtle)
Сезон 7 (1993) Начало Серии 156-169
156.Ночь Черепашек (Night of the Dark Turtle)
157.Звездный Ребенок (The Starchild)
158.Полет на Драконе (The Legend of Koji)
159.Узники Измерения Икс (Convicts from Dimension X)
160.Черное сердце (White Belt, Black Heart)
161.Отсутствует
162.Отсутствует
163.Отсутствует
164.Отсутствует
165.Антлантис (Atlantis Awakes)
166.Отсутствует
167.Отсутствует
168.Роботы-войны (Combat Land)
169.Триумф Шреддера (Shredder Triumphant)
Сезон 8 (1994) Начало Серии 170-177
170.Шреддер берет свое! (Get Shredder!)
171.Гнев Крысиного Короля (Wrath of the Rat King)
172.Состояние шока (State of Shock)
173.С.М.У.Т.А.! (Cry H.A.V.O.C.!)
174.С.М.У.Т.А. на улицах (H.A.V.O.C. in the Streets)
175.Встречайте: Кракус (Enter: Krakus)
176.Кибер-Черепашки (Cyber-Turtles)
177.Черепаший поход (Turtle Trek)
Сезон 9 (1995) Начало Серии 178-185
178.Неизвестный ниндзя (The Unknown Ninja)
179.Дрегг на Земле (Dregg of the Earth)
180.Гнев Медузы (The Wrath of Medusa)
181.Новая мутация (The New Mutation)
182.Шоу начинается (The Showdown)
183.Доли секунды (Split-Second)
184.Картер-диктатор (Carter, the Enforcer)
185.Смертельные поиски (Doomquest)
Сезон 10 (1996) Начало Серии 186-193
186.Возвращение Дрегга (The Return of Dregg)
187.Начало конца (The Beginning of the End)
188.Сила Трех (The Power of Three)
189.Черепашка во времени (A Turtle in Time)
190.Вторая сила Черепашек (Turtles to the Second Power)
191.Гангстер из Измерения Икс (Mobster from Dimension X)
192.День, когда Земля исчезла (The Day the Earth Disappeared)
193.Разделяй и властвуй (Divide and Conquer)
Скриншоты:

--[sh]Мутанты черепашки ниндзя. Новые приключения! (1 - 7 сезон из 7) / Teenage Mutant Ninja Turtles (2003-2009) [H.264] DVDRip[/sh]- Русское название: Мутанты черепашки ниндзя. Новые приключения!
Оригинальное название: Teenage Mutant Ninja Turtles
Страна: США
Жанр: Мультфильм, фантастика, комедия, детектив, приключения
Год выпуска: 2003-2009-Рeжиссёр: Рой Бурдин, Чак Паттон
Роли озвучивали: Майкл Синтерниклаас, Вейн Грэйсон, Фрэнк Фрэнксон, Сэм Ригел, Даррен Данстэн, Марк Томпсон, Вероника Тейлор, Шон Шеммель, Скотти Рэй ...-Oписание:Леонардо! Рафаэль! Микеланджело! Донателло! Мудрый сэнсей Мастер Сплинтер! Четверка черепашек-мутантов во главе со своим учителем борятся с любым проявлением зла!!!- -Перeвод: Профессиональный (полное дублирование)
Субтитры: Нет-Прoдoлжительность: 155 x ~ 00:21:17
Качество: DVDRip-Формат: MPEG-4
Видео: 720x528 (NTSC 4:3), 29.970fps, AVC MPEG4 (x264), High@L5.1, ~ 3795Kbps avg, 0.091bit/pixel
Аудио#1: русский: 44.1KHz, AAC, 2 ch, ~ 109Kbps avg[Профессиональный (полное дублирование)]
Аудио#2: английский: 44.1KHz, AAC, 2 ch, ~ 108Kbps avg [Оригинал]

MediaInfo

Формат : MPEG-4
Профиль формата : Base Media
Идентификатор кодека : isom
Размер файла : 175 Мбайт
Продолжительность : 21 м.
Режим общего битрейта : Переменный
Общий поток : 1150 Кбит/сек
Дата кодирования : UTC 2008-01-02 18:42:37
Дата пометки : UTC 2008-01-02 18:42:37
Видео
Идентификатор : 1
Формат : AVC
Формат/Информация : Advanced Video Codec
Профиль формата : High@L5.1
Параметр CABAC формата : Да
Параметр ReFrames формата : 13 кадров
Идентификатор кодека : avc1
Идентификатор кодека/Информация : Advanced Video Coding
Продолжительность : 21 м.
Битрейт : 949 Кбит/сек
Максимальный битрейт : 2601 Кбит/сек
Ширина : 720 пикселей
Высота : 480 пикселей
Соотношение сторон : 3:2
Режим частоты кадров : Постоянный
Частота кадров : 23,976 кадра/сек
Стандарт вещания : NTSC
Цветовое пространство : YUV
Субдискретизация насыщенности : 4:2:0
Битовая глубина : 8 бит
Тип развёртки : Прогрессивная
Бит/(Пиксели*Кадры) : 0.115
Размер потока : 144 Мбайт (83%)
Библиотека кодирования : x264 core 57 svn-709C
Настройки программы : cabac=1 / ref=10 / deblock=1:-2:-1 / analyse=0x3:0x133 / me=umh / fpel_cmp=sad / subme=6 / me-prepass=0 / brdo=1 / mixed_ref=1 / me_range=16 / chroma_me=1 / trellis=2 / 8x8dct=1 / cqm=0 / deadzone=21,11 / chroma_qp_offset=0 / threads=3 / nr=0 / decimate=0 / mbaff=0 / bframes=16 / b_pyramid=1 / b_adapt=1 / b_bias=0 / direct=3 / wpredb=1 / bime=1 / keyint=250 / keyint_min=25 / scenecut=40(pre) / rc=2pass / bitrate=949 / ratetol=1.0 / rceq='blurCplx^(1-qComp)' / qcomp=0.60 / qpmin=10 / qpmax=51 / qpstep=4 / cplxblur=20.0 / qblur=0.5 / ip_ratio=1.40 / pb_ratio=1.30 / aq=1:0.5:10.0
Дата кодирования : UTC 2008-01-02 18:42:37
Дата пометки : UTC 2008-01-02 18:42:59
Аудио #1
Идентификатор : 2
Формат : AAC
Формат/Информация : Advanced Audio Codec
Профиль формата : LC
Идентификатор кодека : 40
Продолжительность : 21 м.
Вид битрейта : Переменный
Битрейт : 96,0 Кбит/сек
Максимальный битрейт : 118 Кбит/сек
Каналы : 2 канала
Расположение каналов : Front: L R
Частота : 48,0 КГц
Метод сжатия : С потерями
Размер потока : 14,5 Мбайт (8%)
Дата кодирования : UTC 2008-01-02 18:42:53
Дата пометки : UTC 2008-01-02 18:42:59
Аудио #2
Идентификатор : 3
Формат : AAC
Формат/Информация : Advanced Audio Codec
Профиль формата : LC
Идентификатор кодека : 40
Продолжительность : 21 м.
Вид битрейта : Переменный
Битрейт : 99,8 Кбит/сек
Максимальный битрейт : 111 Кбит/сек
Каналы : 2 канала
Расположение каналов : Front: L R
Частота : 48,0 КГц
Метод сжатия : С потерями
Размер потока : 15,2 Мбайт (9%)
Дата кодирования : UTC 2008-01-02 18:42:53
Дата пометки : UTC 2008-01-02 18:42:59

Список серий

Сезон 1 (2003)Все меняется
Лучшая мышеловка
Нападение Мышероботов
Знакомьтесь: Кейси Джонс
Нано
Тьма на окраине города
Стать невидимкой
Падший ангел
Мусорщик
Шреддер атакует. Часть 1
Шреддер атакует. Часть 2
Не герой
Байки подземелья. Часть 1
Байки подземелья. Часть 2
Байки подземелья. Часть 3
Король
Шреддер наносит ответный удар. Часть 1
Шреддер наносит ответный удар. Часть 2
Рассказы Лео
Охотник на монстров
Возвращение в Нью-Йорк. Часть 1
Возвращение в Нью-Йорк. Часть 2
Возвращение в Нью-Йорк. Часть 3
Раф и малыш
В поисках Сплинтера. Часть 1
В поисках Сплинтера. Часть 2Сезон 2 (2003—2004)Черепашки в космосе. Часть 1. Фугитойд
Черепашки в космосе. Часть 2. Неприятности с Трицератонами
Черепашки в космосе. Часть 3. Большой дом
Черепашки в космосе. Часть 4. Арена
Черепашки в космосе. Часть 5. Войны Трицератонов
Секрет происхождения. Часть 1
Секрет происхождения. Часть 2
Секрет происхождения. Часть 3
Отражения
Супер ниндзя
Возвращение Нано
Внимание, крокодил!
Возвращение под землю
Война в городе. Часть 1
Война в городе. Часть 2
Война в городе. Часть 3
Хламлатида
Золотая Шайба
Мошенник в доме. Часть 1
Мошенник в доме. Часть 2
Артефакт Эйприл
Возвращение Лиги Правосудия
Большая битва. Часть 1
Большая битва. Часть 2
Большая битва. Часть 3
Большая битва. Часть 4Сезон 3 (2004—2005)Космические захватчики. Часть 1
Космические захватчики. Часть 2
Космические захватчики. Часть 3
Столкновение миров. Часть 1
Столкновение миров. Часть 2
Столкновение миров. Часть 3 + bonus
Коварный план
Беглец
Г. Н.Е. В.
Безрассудный Никто
Новая кровь
Урок
Рождественские пришельцы
Тьма внутри
«Тяжёлое» задание
Хранитель пустоты
Затерянные во времени
Разборка Хана
Подлинная реальность
Пересекая Вселенную
То, чего никогда не было
Реальный мир. Часть 1
Реальный мир. Часть 2
Гамбит Бишопа
Исход. Часть 1
Исход. Часть 2Сезон 4 (2005—2006)Кузен Сид
Выбор людей
Сыновья безмолвия
Замысел драконов
Я-Монстр
Неприятное состязание
Молитвы и крылья
Плохой день
Пришельцы среди нас
Возрождение Драконов
Бесшумный Никто
Всё адское отродье
Туристы-самураи
Старейший
Наследник Шреддера
Блудный сын
Заражение
Проблемы с Огги
Безумец в клетке
Возвращение Саванти Ромеро. Часть 1
Возвращение Саванти Ромеро. Часть 2
История Мастера Йоши
Приключение в Доме Черепашек
Хорошие гены. Часть 1
Хорошие гены. Часть 2
Ниндзя ТрибуналСезон 5 (2006)Пища богов
дьяволы и монстры
Легенда о 5 драконах
Миров больше, чем один
Начало конца
«Переработанный» кошмар (по ТВ не транслировалась)
Вступительное испытание
Новый мировой порядок. Часть 1
Новый мировой порядок. Часть 2
Отцы и дети
Прошлое и настоящее
Появление Драконов. Часть 1
Появление Драконов. Часть 2Сезон 6 (2006—2007)Прыжок в будущее
Окно времени
Ловушка для черепашек
Бойцовский турнир
Игра окончена
Возвращение Бишопа
Неожиданная встреча
Супергерой
Путешествие на луну
Смертельное оружие
Микеланджело в опасности
Нашествие клонов
Волшебная тетрадь
Опасная игра
Выпускной день
Машина времени
Вражеская атака
Межгалактический наёмник
Крах империи
Страшный вирус
Гонка за славой
Подземные монстры
План уничтожения
Космическое приключение
План захвата Земли
Успешная миссия
Сезон 7 (2008—2009)
Время не стоит на месте
Школа каратэ
Что-то злое
Обручальное кольцо
Взломать Стокмана
Невероятно уменьшающийся Серлинг
Кризис личности
Сетевой крикун
СуперКвест
Проверка виртуальной реальности
Город в осаде
Битва Супергероев
Свадебные колокола и байты
Громилы с острова мутантов
Скриншоты:

--[sh]Черепашки ниндзя / Teenage Mutant Ninja Turtles (2007) DVDRip[/sh]- Русское название: Черепашки мутанты ниндзя
Оригинальное название: Teenage Mutant Ninja Turtles
Страна: США, Гонконг
Жанр: Мультфильм, фантастика, комедия, детектив, приключения
Год выпуска: 2007-Рeжиссёр: Кевин Манро
Роли озвучивали: Нолан Норт, Джеймс Арнольд Тейлор, Митчел Уитфилд, Мики Келли, Мако, Сара Мишель Геллар, Крис Эванс, Патрик Стюарт, Чжан Цзыи, Лоренс Фишбёрн-Oписaние:Странные события происходят в Нью-Йорке: некий ученый Марк Уинтерс собирает армию древних монстров с единственной целью — поработить мир. Черепашки необходимы больше, чем когда-либо, но Рафаэль, Донателло и Микеланджело исчезли. Поэтому Леонардо должен восстановить единство команды, чтобы затем спасти город!- -Перeвод: Профессиональный (полное дублирование)
Субтитры: Нет-Прoдолжительность: 01:26:51
Качество: DVDRip-Формат: AVI
Видео: 720x304 (2.37:1), 23.976 fps, XviD build 64 ~1939 kbps avg, 0.37 bit/pixel
Аудио: 48 kHz, AC3 Dolby Digital, 3/2 (L,C,R,l,r) + LFE ch, ~448.00 kbps avg

MediaInfо

Формат : AVI
Формат/Информация : Audio Video Interleave
Размер файла : 1,45 Гбайт
Продолжительность : 1 ч. 26 м.
Общий поток : 2396 Кбит/сек
Название фильма : Teenage Mutant Ninja Turtles
Режиссёр : Deep Fusion
Программа кодирования : VirtualDubMod 1.5.10.3
Формат оригинала/Имя : Cartoon
Видео
Идентификатор : 0
Формат : MPEG-4 Visual
Профиль формата : Advanced Simple@L5
Параметр BVOP формата : 1
Параметр QPel формата : Нет
Параметр GMC формата : Без точки перехода
Параметр матрицы формата : Выборочная
Идентификатор кодека : XVID
Идентификатор кодека/Подсказка : XviD
Продолжительность : 1 ч. 26 м.
Битрейт : 1939 Кбит/сек
Ширина : 720 пикселей
Высота : 304 пикселя
Соотношение сторон : 2,35:1
Частота кадров : 23,976 кадра/сек
Цветовое пространство : YUV
Субдискретизация насыщенности : 4:2:0
Битовая глубина : 8 бит
Тип развёртки : Прогрессивная
Метод сжатия : С потерями
Бит/(Пиксели*Кадры) : 0.370
Размер потока : 1,18 Гбайт (81%)
Библиотека кодирования : XviD 64
Аудио
Идентификатор : 1
Формат : AC-3
Формат/Информация : Audio Coding 3
Расширение режима : CM (complete main)
Параметр Endianness формата : Big
Идентификатор кодека : 2000
Продолжительность : 1 ч. 26 м.
Вид битрейта : Постоянный
Битрейт : 448 Кбит/сек
Каналы : 6 каналов
Расположение каналов : Front: L C R, Side: L R, LFE
Частота : 48,0 КГц
Битовая глубина : 16 бит
Метод сжатия : С потерями
Размер потока : 278 Мбайт (19%)
Выравнивание : Разделение по промежуткам
Продолжительность промежутка : 42 мс. (1,00 видеокадр)
Время предзагрузки промежутка : 500 мс.
Скриншоты:

Дополнительная информация:

Главные герои
Леонардо — неформальный лидер черепашек, храбрый, решительный и преданный. Как строгий приверженец бусидо, он очень чётко следует правилам чести. Он носит синюю маску и владеет мечом «Катана». Его назвали в честь Леонардо да Винчи.
Рафаэль — в ранних комиксах изображался как агрессивный и подозрительный ниндзя, ревнующий к лидерству Леонардо, что в некотором смысле осталось и в мультфильмах 2003 и 2007 годов. В мультсериалах и последующих работах характер Рафаэля изменился. Авторы придали ему наклонности философа и своеобразное чувство юмора, которое он проявляет, комментируя происходящее в парадоксальной манере. Рафаэль носит красную маску и владеет парой кинжалов-сай. Его назвали в честь Рафаэля Санти.
Микеланджело — добродушный и беззаботный Микеланджело — главный комик в команде, чемпион битвы Нексус, отчего считает себя самым способным в команде и не очень любит тренировки. Любит читать комиксы и есть пиццу, обожает экстрим (скейтбординг в том числе). Микеланджело носит оранжевую маску (в более ранней версии желтую)и владеет парой нунчаки. Его назвали в честь Микеланджело Буонарроти.
Донателло — учёный-любитель, исследователь и «просто гений», Донателло имеет репутацию заумного парня. Он, возможно, наименее агрессивный в команде, поскольку предпочитает разрешать конфликты мирным путём. Носит фиолетовую маску и владеет шестом-бо. Его назвали в честь скульптора Донато ди Никколо ди Бетто Барди.
Сплинтер — сэнсэй черепашек, практически заменивший им отца, крыса-мутант. В некоторых версиях (мультфильм) Сплинтер — домашняя крыса, обучившаяся искусству ниндзюцу от своего хозяина Хамато Йоши. В других (комикс, первая экранизация) Сплинтер — бывший человек Хамато Йоши, под воздействием мутагена превратившийся в крысоподобное существо. Имя Сплинтера — пародия на Стика, наставника Сорвиголовы.
Шреддер (англ. Shredder) — злобный мастер-ниндзя по имени Ороку Саки, который стоит во главе клана Фут. Противник Сплинтера и Черепашек. В комиксах и первой экранизации Шреддер — виновник смерти Хамато Йоши, в мультсериале 1987 года — мутаций черепах и Сплинтера, в мультсериале 2003 года — злой инопланетянин-преступник.
Эйприл О’Нил — в первом мультсериале — репортёр Шестого канала, подруга Черепашек, рыжеволосая красивая девушка. Имеет отличное репортёрское чутьё, что позволяет ей всегда быть в центре событий. При этом постоянно попадает в опасные для жизни ситуации, из которых её выручают черепашки. Во втором сериале учёная, работавшая с Бакстером Стокманом, которую Черепашки спасли от роботов. В полнометражном мультфильме 2007 года — археолог.
Кейси Джонс — герой-одиночка, ставший ближайшим другом черепашек. Кейси сражается спортивными принадлежностями (бейсбольной битой, клюшкой для гольфа, хоккейной клюшкой и т. д.). Он носит хоккейную маску вратаря, чтобы скрыть своё лицо. Назван в честь фольклорного героя Дикого Запада, машиниста паровоза Кейси Джонса. В мультсериале 1987 появляется лишь несколько раз, зато становится главным героем в мультсериале 2003 года.
Ирма — героиня первого мультсериала, сотрудница Шестого канала. Малопривлекательная внешне, но очень влюбчивая девушка, приятельница Эйприл.
Берн Томпсон — начальник 6-го канала в первом мультсериале. Не любит черепашек и всегда видит в них скрытую угрозу, несмотря на их подвиги. Использует любую возможность выставить их публично в плохом свете.
Вернон — персонаж из первого мультсериала. Коллега Эйприл по работе. В основном работает оператором и техником, но в некоторых сериях заменяет Эйприл (когда её нет рядом или когда её понизили) ведущим и корреспондентом. Вечно недоволен, когда Эйприл достаются репортажи, и уговаривает начальника передать их ему. Труслив.
Крэнг — персонаж первого мультсериала — инопланетянин из Измерения X, союзник Шреддера. Обитает на своей станции в Измерении X, позднее во льдах Арктики. Выглядит как мозг со щупальцами. Передвигается, управляя роботом-экзоскелетом, в котором находится. Придумывает злодейские планы, исполнять которые посылает Шреддера. Сам вступает в бой крайне редко. Во втором сезоне нового сериала есть одноимённый утром, который сетовал на то, что не любит ходить на щупальцах.
Бибоп и Рокстеди — персонажи первого мультсериала — носорог и кабан-мутанты, помощники Шреддера, бывшие панки. Амплуа — «тупые подручные главного злодея». Имена — названия музыкальных жанров, бибопа и рокстеди соответственно.
Бакстер Стокман — безумный учёный, отличавшийся особой ненавистью к животным, создал мышероботов — маусеров, убийц крыс и черепах. В мультсериале 1987 года — психопат, вечно мешающий Шредеру, приспешник Шредера. В мультсериале 2003 года — гениальный учёный, у которого раньше работала Эйприл. В каждом из сериалов с ним происходили изменения. В старом он превратился в гигантскую человекоподобную муху, а в сериале с 2003 года ему отрезали различные части тел за ошибки, оставив в конце только мозг. Что, в принципе, не помешало его хозяевам менять потом уже его роботизированную внешность.
Картер — байкер, обнаруживший самостоятельно убежище черепашек, чтобы совершенствовать свои боевые искусства у Сплинтера. Случайно облив себя мутагеном, получил возможность превращаться в жёлтого силача. Является верным помощником черепашек на протяжении последних двух сезонов мультсериала 1987 года.
Лорд Дрегг — инопланетный военачальник, использующий сверхразвитые технологии. Выдаёт себя за космического благодетеля, однако на самом деле строит планы порабощения Земли. Основной враг черепашек на протяжении последних двух сезонов первого мультсериала, пришедший на смену побеждённому Шреддеру.
Крысиный Король — появляющийся в нескольких сериях персонаж, обычно исполняет роль антагониста. Внешне — человек, имеет власть над крысами. Образ, скорее, соответствующий Гаммельнскому Флейтисту, чем крысиному королю.
Усаги — молодой кролик самурай, появлялся в обоих мультсериалах. В первом 1987 года, попал в мир черепашек из другого измерения. В сериале 2003 года, был участником битвы Нексуса и другом Леонардо.
Хан — правая рука Шреддера из мультсериала 2003 года, главарь банды «Пурпурные драконы».
Скриншоты:

-Время раздачи: 24/7 (По возможности)

[Цитировать]

Топик был перенесен из форума Другие мультсериалы в форум Зарубежные мультфильмы
Prizr@k



Показать сообщения:    

Текущее время: 10-Дек 17:47

Часовой пояс: UTC + 3


Вы не можете начинать темы
Вы не можете отвечать на сообщения
Вы не можете редактировать свои сообщения
Вы не можете удалять свои сообщения
Вы не можете голосовать в опросах
Вы не можете прикреплять файлы к сообщениям
Вы не можете скачивать файлы

!ВНИМАНИЕ!
Сайт не предоставляет электронные версии произведений, а занимается лишь коллекционированием и каталогизацией ссылок, присылаемых и публикуемых на форуме нашими читателями. Если вы являетесь правообладателем какого-либо представленного материала и не желаете, чтобы ссылка на него находилась в нашем каталоге, свяжитесь с нами, и мы незамедлительно удалим ее. Файлы для обмена на трекере предоставлены пользователями сайта, и администрация не несет ответственности за их содержание. Просьба не заливать файлы, защищенные авторскими правами, а также файлы нелегального содержания!