[ Сегодня идет свободное скачивание без начисления Download ]


Статистика раздачи
Нет
 
   
 
Top  
 
 
КиборгCyborg«He's the first hero of the 21st century.»- Страна: США
Жанр: фантастика, боевик
Год выпуска: 1989
Продолжительность: 01:26:24
Перевод:
Профессиональный (многоголосый, закадровый)
Авторский (А.Гаврилов)
Авторский (В.Дохалов)
Авторский (Л.Володарский)
+ Украинская звуковая дорожка, Профессиональный (многоголосый, закадровый) {1+1}
Субтитры: русские (Forced), русские (Full), английские (Full)-Режиссер: Альберт Пьюн / Albert Pyun
В ролях:
Жан-Клод Ван Дамм (Gibson Rickenbacker), Дебора Рихтер (Nady Simmons), Винсент Клин (Fender Tremolo), Алекс Дэниелс (Marshall Strat), Дейл Хэддон (Pearl Prophet), Блэйз Лунг (Furman Vux / Pirate / Bandit), Ральф Мёллер (Brick Bardo), Хейли Питерсон (Haley), Терри Батсон (Mary), Джексон 'Скала' Пинкни (Tytus / Pirate / Bandit), Джэнис Грейсер (Vorg), Роберт Пентз (Base / Pirate / Bandit)
Описание: Америка 21-го века, прозябая в социальной анархии и смертоносной чуме, вот-вот станет жертвой бурного воровского беспредела. Только Перл Профет, прекрасная полуженщина-полуробот, знает секрет создания спасительной вакцины.
Собирая компоненты, необходимые для спасения человечества, Перл попадает в плен к людоеду Флэшу Пайротсу, который замыслил использовать противоядие в личных целях и добиться господства над целым миром. Теперь только стальной кулак героя-меченосца Гибсона Рикенбакера может спасти ее, а заодно и все, что еще осталось от человечества...


MPAA: R - Лицам до 17 лет обязательно присутствие взрослого-Источник:
Качество: BDRip/720p {by IBodyB}
Контейнер: MKV
Видео: 1280x692, AVC, 23,976 fps, 13111 kbps
Аудио №1: русский / DTS / 2.0 / 48 kHz / 755 kbps / 24 bit ||MVO - R5
Аудио №2: русский / DTS / 2.0 / 48 kHz / 755 kbps / 16 bit || AVO - А.Гаврилов
Аудио №3: русский / DTS / 2.0 / 48 kHz / 755 kbps / 16 bit || AVO - В.Дохалов
Аудио №4: русский / AC3 / 2.0 / 48 kHz / 192 kbps / 16 bit || AVO - Л.Володарский
Аудио №5: украинский / AC3 / 2.0 / 48 kHz / 192 kbps / 16 bit || MVO - 1+1
Аудио №6: английский / DTS / 2.0 / 48 kHz / 755 kbps / 24 bit
Субтитры: русские (Forced), русские (Full), английские (Full)
Навигация по главам: есть- -

log x264

---[NoImage] x264 [info]: frame I:906 Avg QP:15.68 size:186901---[NoImage] x264 [info]: frame P:27183 Avg QP:16.93 size: 98913---[NoImage] x264 [info]: frame B:96208 Avg QP:19.06 size: 58542---[NoImage] x264 [info]: consecutive B-frames: 2.8% 3.3% 8.6% 12.8% 14.7% 46.3% 5.3% 2.3% 2.4% 1.6%---[NoImage] x264 [info]: mb I I16..4: 17.0% 67.4% 15.7%---[NoImage] x264 [info]: mb P I16..4: 1.0% 46.1% 2.9% P16..4: 16.1% 19.6% 11.0% 0.0% 0.0% skip: 3.4%---[NoImage] x264 [info]: mb B I16..4: 0.1% 14.4% 0.6% B16..8: 30.7% 23.9% 7.8% direct:12.0% skip:10.4% L0:46.5% L1:39.2% BI:14.3%---[NoImage] x264 [info]: 8x8 transform intra:93.0% inter:60.7%---[NoImage] x264 [info]: direct mvs spatial:97.0% temporal:3.0%---[NoImage] x264 [info]: coded y,uvDC,uvAC intra: 97.4% 97.3% 90.7% inter: 66.6% 57.9% 27.8%---[NoImage] x264 [info]: i16 v,h,dc,p: 36% 3% 24% 37%---[NoImage] x264 [info]: i8 v,h,dc,ddl,ddr,vr,hd,vl,hu: 9% 7% 16% 10% 12% 12% 11% 12% 12%---[NoImage] x264 [info]: i4 v,h,dc,ddl,ddr,vr,hd,vl,hu: 42% 4% 7% 7% 9% 9% 8% 8% 7%---[NoImage] x264 [info]: i8c dc,h,v,p: 60% 12% 12% 16%---[NoImage] x264 [info]: Weighted P-Frames: Y:10.8% UV:6.2%---[NoImage] x264 [info]: ref P L0: 38.4% 10.9% 20.5% 8.4% 7.1% 4.6% 4.4% 2.5% 2.6% 0.5% 0.0%---[NoImage] x264 [info]: ref B L0: 67.3% 14.3% 7.3% 4.1% 2.9% 2.5% 1.3% 0.4%---[NoImage] x264 [info]: ref B L1: 90.7% 9.3%---[NoImage] x264 [info]: kb/s:13101.80---[NoImage] encoded 124297 frames, 1.97 fps, 13101.80 kb/s--[Information] Final statistics---[Information] [02.11.2012 20:06:59] Video Bitrate Desired: 13111 kbit/s

Media Info

General
Unique ID : 183450645385532208724607424133561574250 (0x8A034F22EA54CACF91AECA8501BFE36A)
Complete name : L:\Мои раздачи\Киборг__Cyborg [1989.BDRip.720p.MVO.3AVO.Ukr.Eng.Subs]-HQFans.mkv
Format : Matroska
Format version : Version 2
File size : 10.00 GiB
Duration : 1h 26mn
Overall bit rate : 16.6 Mbps
Movie name : Киборг__Cyborg [1989.BDRip.720p.MVO.3AVO.Ukr.Eng.Subs]-HQFans
Encoded date : UTC 2012-11-04 07:02:27
Writing application : mkvmerge v5.8.0 ('No Sleep / Pillow') built on Sep 2 2012 15:37:04
Writing library : libebml v1.2.3 + libmatroska v1.3.0
Video
ID : 1
Format : AVC
Format/Info : Advanced Video Codec
Format profile : [email protected]
Format settings, CABAC : Yes
Format settings, ReFrames : 9 frames
Codec ID : V_MPEG4/ISO/AVC
Duration : 1h 26mn
Bit rate : 13.1 Mbps
Width : 1 280 pixels
Height : 692 pixels
Display aspect ratio : 1.850
Frame rate : 23.976 fps
Color space : YUV
Chroma subsampling : 4:2:0
Bit depth : 8 bits
Scan type : Progressive
Bits/(Pixel*Frame) : 0.617
Stream size : 7.74 GiB (77%)
Title : Rip by IBodyB
Writing library : x264 core 128 r2216 198a7ea
Encoding settings : cabac=1 / ref=9 / deblock=1:-3:-3 / analyse=0x3:0x113 / me=tesa / subme=11 / psy=1 / psy_rd=1.00:0.10 / mixed_ref=1 / me_range=48 / chroma_me=1 / trellis=2 / 8x8dct=1 / cqm=0 / deadzone=21,11 / fast_pskip=0 / chroma_qp_offset=-3 / threads=18 / lookahead_threads=3 / sliced_threads=0 / nr=0 / decimate=0 / interlaced=0 / bluray_compat=0 / constrained_intra=0 / bframes=9 / b_pyramid=2 / b_adapt=2 / b_bias=0 / direct=3 / weightb=1 / open_gop=0 / weightp=2 / keyint=240 / keyint_min=22 / scenecut=40 / intra_refresh=0 / rc_lookahead=40 / rc=2pass / mbtree=0 / bitrate=13111 / ratetol=1.0 / qcomp=0.60 / qpmin=0 / qpmax=69 / qpstep=4 / cplxblur=20.0 / qblur=0.5 / vbv_maxrate=40000 / vbv_bufsize=30000 / nal_hrd=none / ip_ratio=1.40 / pb_ratio=1.30 / aq=1:1.00
Language : English
Default : Yes
Forced : No
Color primaries : BT.709-5, BT.1361, IEC 61966-2-4, SMPTE RP177
Transfer characteristics : BT.709-5, BT.1361
Matrix coefficients : BT.709-5, BT.1361, IEC 61966-2-4 709, SMPTE RP177
Audio #1
ID : 2
Format : DTS
Format/Info : Digital Theater Systems
Codec ID : A_DTS
Duration : 1h 26mn
Bit rate mode : Constant
Bit rate : 755 Kbps
Channel(s) : 2 channels
Channel positions : Front: L R
Sampling rate : 48.0 KHz
Bit depth : 24 bits
Compression mode : Lossy
Stream size : 466 MiB (5%)
Title : MVO {R5} [DTS [email protected]/24-bit]
Language : Russian
Default : Yes
Forced : No
Audio #2
ID : 3
Format : DTS
Format/Info : Digital Theater Systems
Codec ID : A_DTS
Duration : 1h 26mn
Bit rate mode : Constant
Bit rate : 755 Kbps
Channel(s) : 2 channels
Channel positions : Front: L R
Sampling rate : 48.0 KHz
Bit depth : 16 bits
Compression mode : Lossy
Stream size : 466 MiB (5%)
Title : AVO {А.Гаврилов} [DTS [email protected]/16-bit]
Language : Russian
Default : No
Forced : No
Audio #3
ID : 4
Format : DTS
Format/Info : Digital Theater Systems
Codec ID : A_DTS
Duration : 1h 26mn
Bit rate mode : Constant
Bit rate : 755 Kbps
Channel(s) : 2 channels
Channel positions : Front: L R
Sampling rate : 48.0 KHz
Bit depth : 16 bits
Compression mode : Lossy
Stream size : 466 MiB (5%)
Title : AVO {В.Дохалов} [DTS [email protected]/16-bit]
Language : Russian
Default : No
Forced : No
Audio #4
ID : 5
Format : AC-3
Format/Info : Audio Coding 3
Format profile : Dolby Digital
Mode extension : CM (complete main)
Codec ID : A_AC3
Duration : 1h 26mn
Bit rate mode : Constant
Bit rate : 192 Kbps
Channel(s) : 2 channels
Channel positions : Front: L R
Sampling rate : 48.0 KHz
Bit depth : 16 bits
Compression mode : Lossy
Stream size : 119 MiB (1%)
Title : AVO {Л.Володарский} [AC3 [email protected]/16-bit]
Language : Russian
Default : No
Forced : No
Audio #5
ID : 6
Format : AC-3
Format/Info : Audio Coding 3
Mode extension : CM (complete main)
Codec ID : A_AC3
Duration : 1h 26mn
Bit rate mode : Constant
Bit rate : 192 Kbps
Channel(s) : 2 channels
Channel positions : Front: L R
Sampling rate : 48.0 KHz
Bit depth : 16 bits
Compression mode : Lossy
Stream size : 119 MiB (1%)
Title : MVO {1+1} [AC3 [email protected]/16-bit]
Language : Ukrainian
Default : No
Forced : No
Audio #6
ID : 7
Format : DTS
Format/Info : Digital Theater Systems
Codec ID : A_DTS
Duration : 1h 26mn
Bit rate mode : Constant
Bit rate : 755 Kbps
Channel(s) : 2 channels
Channel positions : Front: L R
Sampling rate : 48.0 KHz
Bit depth : 24 bits
Compression mode : Lossy
Stream size : 466 MiB (5%)
Title : Original [DTS [email protected]/24-bit]
Language : English
Default : No
Forced : No
Text #1
ID : 8
Format : UTF-8
Codec ID : S_TEXT/UTF8
Codec ID/Info : UTF-8 Plain Text
Title : Forced
Language : Russian
Default : Yes
Forced : No
Text #2
ID : 9
Format : UTF-8
Codec ID : S_TEXT/UTF8
Codec ID/Info : UTF-8 Plain Text
Title : Full
Language : Russian
Default : No
Forced : No
Text #3
ID : 10
Format : UTF-8
Codec ID : S_TEXT/UTF8
Codec ID/Info : UTF-8 Plain Text
Title : Full
Language : English
Default : No
Forced : No
Menu
00:00:00.000 : :Chapter 01
00:00:25.191 : :Chapter 02
00:04:14.087 : :Chapter 03
00:05:24.699 : :Chapter 04
00:10:31.881 : :Chapter 05
00:16:20.479 : :Chapter 06
00:23:38.166 : :Chapter 07
00:28:52.814 : :Chapter 08
00:32:34.077 : :Chapter 09
00:36:01.075 : :Chapter 10
00:40:01.482 : :Chapter 11
00:46:34.917 : :Chapter 12
00:49:52.364 : :Chapter 13
00:55:11.725 : :Chapter 14
00:56:38.103 : :Chapter 15
00:59:36.614 : :Chapter 16
01:05:58.037 : :Chapter 17
01:09:25.035 : :Chapter 18
01:12:41.565 : :Chapter 19
01:19:29.723 : :Chapter 20
01:22:11.801 : :Chapter 21
01:26:24.179 : :Chapter 22

[Цитировать]



Показать сообщения:    

Текущее время: 04-Дек 21:28

Часовой пояс: UTC + 3


Вы не можете начинать темы
Вы не можете отвечать на сообщения
Вы не можете редактировать свои сообщения
Вы не можете удалять свои сообщения
Вы не можете голосовать в опросах
Вы не можете прикреплять файлы к сообщениям
Вы не можете скачивать файлы

!ВНИМАНИЕ!
Сайт не предоставляет электронные версии произведений, а занимается лишь коллекционированием и каталогизацией ссылок, присылаемых и публикуемых на форуме нашими читателями. Если вы являетесь правообладателем какого-либо представленного материала и не желаете, чтобы ссылка на него находилась в нашем каталоге, свяжитесь с нами, и мы незамедлительно удалим ее. Файлы для обмена на трекере предоставлены пользователями сайта, и администрация не несет ответственности за их содержание. Просьба не заливать файлы, защищенные авторскими правами, а также файлы нелегального содержания!