[ Сегодня идет свободное скачивание без начисления Download ]


Статистика раздачи
Нет
 
   
 
Top  
 
 
-Приключения Мишек Гамми (6 сезонов, 65 серий из 65) / Мишки Гамми / Adventures of the Gummi Bears (1985-1991) DVDRip- Года выпуска: 1985-1991
Cтрана: США
Производство: Walt Disney Television Animation
Жанр: Рисованная анимация
Режиссер: Дэвид Блок / David Block
Персонажи: Ворчун, Колдун, Бабушка, Толстун, Солнышко, Малыш
Перевод: Дублированный, студия "Пифагор"
Субтитры: Отсутствуют
Описание фильма: Волшебство, тайны и приключения вместе с самыми милыми героями в мире!
Каждый Мишка Гамми по-своему уникален: вечно недовольный Ворчун Гамми, мудрый Колдун Гамми, заботливая Бабушка Гамми, любитель поесть - Толстун Гамми, строптивая Солнышко Гамми и отважный Малыш Гамми. Но когда им грозит беда, все они объединяются в одну дружную команду! Качество видео: DVDRip
Продолжительность: 65 серий по ~00:22:00 (67 эпизодов)
Видеокодек: Xvid
Размер кадра: 720 x 544
Битрейт видео: ~2900 kb/s
Аудио 1: Русский, Dolby AC3, 2 ch, 192 kb/s
Аудио 2: Английский, Dolby AC3, 2 ch, 192 kb/s

Список серий

1 сезон
01. Как это начиналось
02. Скульптор-злодей
03. Кoлдун даёт жару
04. След дракона
05. Я хотел оставить его себе
06. Гамми в позолоченной клетке
07. Прорицатель
08. Великан и волшебный камень
09. Гамми или кто-то другой
10. Хитрец, домой!
11. Мы идём на охоту
12. Прожорливая птица
13. Рыцари ордена Гаммадун
14. Секрет сока Гамми
15. Добрый и злой Ворчун
16. Поединок волшебников
17. Это я, ты меня видишь?
18. Невероятное приключение Подлизы
19. Как пузырёк попал в беду
20. В чужой стороне
21. Чудесный гаммископ
2 сезон
01. Хочу стать рыцарем
02. Проворный Толстун
03. За горсть монет
04. За рекой у троллей
05. Не спи-замёрзнешь
06. Малиновый мститель
07. Рыцарские забавы
08. Как стать большим
09. Нелёгкая работа Колдуна
10. Как найти воришку
11. У гамми праздник
12. За морями, за горами
3 сезон
01. Слишком много конфет
02. Кто головастее
03. Загадочные превращения
04. Колдовские чары
05. Толстун-фокусник
06. Чудесное дерево
07. Путешествие в зубастый лес
08. Густо и русалка
09. Беспокойные гости
10. Механический медвежонок
11. Проделки ледяной бороды
12. Страшная ночь
13. Весельчак
14. Мой родной мишка
4 Сезон
1. Гамми на море
2. Девушки-рыцари
3. Волшебная музыка
4. Неутомимый малиновый мститель
5. В гостях хорошо а дома лучше
6. Колдун в стране сновидений
7. Толстун сражается до последнего
8. Крошка гоблин
9. Густум и русалка
10. Кто смеется последним?
11. Удачный костюм
12. Толстун фокусник
13. Большой обман
14. Незабываемый рыцарь
15. Проделки ледяной бороды
16. Белый рыцарь
17. Брат Толстун
18. Великолепная семёрка
5 Сезон
1. Кевин в роли гоблина
2. Проблемы двух принцесс
3. Беспокойные гости
4. Путешествие в Урсалию
5. Мост через реку Гамми
6. Лучший друг Гамми — это Гамми
7. Великан и волшебный камень
8. Возвращение в Урсалию
9. Душа общества
10. Мир глазами Густо
11. Не будите спящих гигантов
12. Мы идём на охоту
13. История с землеройной машиной
6 Сезон
1. Работу Гамми не переделать
2. Вертушка Таксфорда
3. Торнберри спешит на помощь
4. Гобелен Гамми
5. Поменяться лицами
6. Обряд
7. Медведь в кресле-качалке
8. Подлиза-завоеватель
9. Все такой же неутомимый малиновый мститель
10. Королева гарпий
11. Король Игторн (часть 1)
12. Король Игторн (часть 2)
13. И правда смельчак
14. Пусть достойнейшая из принцесс победит
15. Толстун в беде

Дополнительная информация:

Дубляж от студии "Пифагор" (2009 г.) отличается от привычного некоторым дубляжа телекомпании Останкино (1992 г.)

MediaInfo

Общее
Формат : AVI
Формат/Информация : Audio Video Interleave
Размер файла : 516 Мбайт
Продолжительность : 22 м.
Общий поток : 3281 Кбит/сек
Программа кодирования : VirtualDubMod 1.5.4.1 (build 2178/release)
Библиотека кодирования : VirtualDubMod build 2178/release
Видео
Идентификатор : 0
Формат : MPEG-4 Visual
Профиль формата : Advanced Simple@L5
Параметр BVOP формата : 1
Параметр QPel формата : Нет
Параметр GMC формата : Без точки перехода
Параметр матрицы формата : Default (MPEG)
Режим смешивания : Сжатый битовый поток
Идентификатор кодека : XVID
Идентификатор кодека/Подсказка : XviD
Продолжительность : 22 м.
Битрейт : 2888 Кбит/сек
Ширина : 720 пикселей
Высота : 544 пикселя
Соотношение сторон : 4:3
Частота кадров : 25,000 кадров/сек
Цветовое пространство : YUV
Субдискретизация насыщенности : 4:2:0
Битовая глубина : 8 бит
Тип развёртки : Прогрессивная
Метод сжатия : С потерями
Бит/(Пиксели*Кадры) : 0.295
Размер потока : 454 Мбайт (88%)
Библиотека кодирования : XviD 64
Аудио #1
Идентификатор : 1
Формат : AC-3
Формат/Информация : Audio Coding 3
Расширение режима : CM (complete main)
Идентификатор кодека : 2000
Продолжительность : 21 м.
Вид битрейта : Постоянный
Битрейт : 192 Кбит/сек
Каналы : 2 канала
Расположение каналов : Front: L R
Частота : 48,0 КГц
Битовая глубина : 16 бит
Метод сжатия : С потерями
Задержка видео : 52 мс.
Размер потока : 30,2 Мбайт (6%)
Выравнивание : Разделение по промежуткам
Продолжительность промежутка : 80 мс. (2,00 видеокадра)
Время предзагрузки промежутка : 500 мс.
Язык : Russian
Аудио #2
Идентификатор : 2
Формат : AC-3
Формат/Информация : Audio Coding 3
Расширение режима : CM (complete main)
Идентификатор кодека : 2000
Продолжительность : 21 м.
Вид битрейта : Постоянный
Битрейт : 192 Кбит/сек
Каналы : 2 канала
Расположение каналов : Front: L R
Частота : 48,0 КГц
Битовая глубина : 16 бит
Метод сжатия : С потерями
Задержка видео : 52 мс.
Размер потока : 30,2 Мбайт (6%)
Выравнивание : Разделение по промежуткам
Продолжительность промежутка : 80 мс. (2,00 видеокадра)
Время предзагрузки промежутка : 500 мс.
Язык : English
Скриншоты: Время раздачи: С 13:00 до 21:00 (до 5 скачавших)

[Цитировать]

Топик был перенесен из форума Walt Disney в форум Зарубежные мультфильмы
Prizr@k



Показать сообщения:    

Текущее время: 11-Дек 16:51

Часовой пояс: UTC + 3


Вы не можете начинать темы
Вы не можете отвечать на сообщения
Вы не можете редактировать свои сообщения
Вы не можете удалять свои сообщения
Вы не можете голосовать в опросах
Вы не можете прикреплять файлы к сообщениям
Вы не можете скачивать файлы

!ВНИМАНИЕ!
Сайт не предоставляет электронные версии произведений, а занимается лишь коллекционированием и каталогизацией ссылок, присылаемых и публикуемых на форуме нашими читателями. Если вы являетесь правообладателем какого-либо представленного материала и не желаете, чтобы ссылка на него находилась в нашем каталоге, свяжитесь с нами, и мы незамедлительно удалим ее. Файлы для обмена на трекере предоставлены пользователями сайта, и администрация не несет ответственности за их содержание. Просьба не заливать файлы, защищенные авторскими правами, а также файлы нелегального содержания!