[ Сегодня идет свободное скачивание без начисления Download ]


Статистика раздачи
Нет
 
   
 
Top  
 
 

Гарри Поттер и философский камень

Гарри Поттер и философский каменьHarry Potter and the Sorcerer's Stone«Путешествие в твою мечту»- Страна: США, Великобритания
Жанр: фэнтези, приключения, семейный
Год выпуска: 2001
Продолжительность: 02:32:21-Перевод: Профессиональный (двухголосый, закадровый) Гланц и Королёва
Профессиональный (полное дублирование)
Авторский (Рябов Сергей)
Субтитры: русские (Rus (forced)),
русские (Rus (full)),
английские (Eng),
Режиссер: Крис Коламбус / Chris Columbus
В ролях:Дэниэл Рэдклифф (Harry Potter,), Руперт Гринт (Ron Weasley), Эмма Уотсон (Hermione Granger), Ричард Харрис (Professor Albus Dumbledore), Алан Рикман (Severus Snape), Мэгги Смит (Professor Minerva McGonagall), Робби Колтрейн (Rubeus Hagrid), Том Фелтон (Draco Malfoy), Мэттью Льюис (Neville Longbottom), Иэн Харт (Professor Quirinus Quirrell), Дэвид Брэдли (Argus Filch), Шон Биггерстаф (Oliver Wood)
Дублёры: Алексей Елистратов (Harry Potter), Ольга Сирина (Ron Weasley), Лина Иванова (Hermione Granger), Всеволод Абдулов (Professor Albus Dumbledore), Алексей Рязанцев (Severus Snape), Людмила Ильина (Professor Minerva McGonagall), Рогволд Суховерко (Rubeus Hagrid), Николай Быстров (Draco Malfoy), Алексей Костричкин (Neville Longbottom), Андрей Бархударов (Professor Quirinus Quirrell), Вячеслав Баранов (Argus Filch), Михаил Тихонов (Fred Weasley; George Weasley; Dudley Dursley)-Описание: Обычный лондонский мальчик Гарри Поттер на 11-м году жизни узнает, что он - осиротевший сын двух могущественных волшебников, и сам обладает магической силой.
В Хогвартской школе чародейства и волшебства Гарри попадает в водоворот невероятных приключений. Он изучает квиддич - спорт высшего пилотажа, играет в захватывающую игру живыми шахматными фигурами, встречается с Темным Волшебником, который хочет его уничтожить.-
MPAA: PG - Рекомендуется присутствие родителей-Качество: BDRip
Контейнер: MKV
Видео: AVC, 1280x532 (2.40:1), 6590 kbps, 23,976 fps, 0,404 bpp
Аудио 1: русский / AC3 / 5.1 / 48 kHz / 640 kbps / 16 bit 48kHz; (дубляж)
Аудио 2: русский / DTS / 5.1 / 48 kHz / 755 kbps / 24 bit; 48kHz; (Рябов, отдельно)
Аудио 3: русский / AC3 / 5.1 / 48 kHz / 448 kbps / 16 bit; 48kHz; (Гланц, отдельно)
Аудио 4: русский / AC3 / 5.1 / 48 kHz / 448 kbps / 16 bit; 48kHz; (Многоголосный С.Р.И)
Аудио 5: Английский; DTS; 1509 Kbps; CBR; 6 ch; 24 bit; 48kHz; (отдельно)
Навигация по главам: есть-

Скриншоты

Media Info

General
Unique ID : 210582397757299836674028996069668534723 (0x9E6CB1CEB1E899A49DAA78B59B41B9C3)
Complete name : F:\Video\HD\Harry.Potter.Collection\1. Harry Potter and the Sorcerer's Stone\HP1.BDRip720p.DVD9.mkv
Format : Matroska
Format version : Version 2
File size : 7.70 GiB
Duration : 2h 32mn
Overall bit rate : 7 231 Kbps
Movie name : Harry.Potter.and.the.Sorcerer's.Stone.BDRip.720p.DVD9.DXVA
Encoded date : UTC 2011-04-05 13:01:49
Writing application : mkvmerge v4.6.0 ('Still Crazy After All These Years') built on Mar 10 2011 02:50:32
Writing library : libebml v1.2.0 + libmatroska v1.1.0
Video
ID : 1
Format : AVC
Format/Info : Advanced Video Codec
Format profile : High@L4.1
Format settings, CABAC : Yes
Format settings, ReFrames : 8 frames
Codec ID : V_MPEG4/ISO/AVC
Duration : 2h 32mn
Bit rate : 6 590 Kbps
Width : 1 280 pixels
Height : 532 pixels
Display aspect ratio : 2.40:1
Frame rate : 23.976 fps
Color space : YUV
Chroma subsampling : 4:2:0
Bit depth : 8 bits
Scan type : Progressive
Bits/(Pixel*Frame) : 0.404
Stream size : 6.86 GiB (89%)
Writing library : x264 core 80 r1369kMod ec8e586
Encoding settings : cabac=1 / ref=8 / deblock=1:-3:-3 / analyse=0x3:0x113 / me=umh / subme=9 / psy=1 / psy_rd=0.8:0.0 / mixed_ref=1 / me_range=32 / chroma_me=1 / trellis=0 / 8x8dct=1 / cqm=0 / deadzone=6,4 / fast_pskip=0 / chroma_qp_offset=-2 / threads=6 / sliced_threads=0 / nr=0 / decimate=0 / mbaff=0 / constrained_intra=0 / bframes=9 / b_pyramid=2 / b_adapt=2 / b_bias=0 / direct=3 / wpredb=1 / wpredp=2 / keyint=240 / keyint_min=24 / scenecut=40 / rc_lookahead=0 / rc=2pass / mbtree=0 / bitrate=6590 / ratetol=1.0 / qcomp=0.70 / qpmin=10 / qpmax=51 / qpstep=4 / cplxblur=20.0 / qblur=0.5 / vbv_maxrate=16500 / vbv_bufsize=62500 / ip_ratio=1.40 / pb_ratio=1.30 / aq=1:1.00
Language : English
Default : No
Forced : No
Audio
ID : 2
Format : AC-3
Format/Info : Audio Coding 3
Mode extension : CM (complete main)
Codec ID : A_AC3
Duration : 2h 32mn
Bit rate mode : Constant
Bit rate : 640 Kbps
Channel(s) : 6 channels
Channel positions : Front: L C R, Side: L R, LFE
Sampling rate : 48.0 KHz
Bit depth : 16 bits
Compression mode : Lossy
Stream size : 697 MiB (9%)
Title : Rus (Dub -BD.CEE-)
Language : Russian
Default : Yes
Forced : No
Text #1
ID : 3
Format : UTF-8
Codec ID : S_TEXT/UTF8
Codec ID/Info : UTF-8 Plain Text
Title : Rus (forced)
Language : Russian
Default : Yes
Forced : Yes
Text #2
ID : 4
Format : UTF-8
Codec ID : S_TEXT/UTF8
Codec ID/Info : UTF-8 Plain Text
Title : Rus (full)
Language : Russian
Default : No
Forced : No
Text #3
ID : 5
Format : UTF-8
Codec ID : S_TEXT/UTF8
Codec ID/Info : UTF-8 Plain Text
Title : Eng
Language : English
Default : No
Forced : No
Menu
00:00:00.000 : en:00:00:00.000
00:04:05.245 : en:00:04:05.245
00:08:10.990 : en:00:08:10.990
00:12:17.236 : en:00:12:17.236
00:18:25.104 : en:00:18:25.104
00:21:43.469 : en:00:21:43.469
00:24:41.480 : en:00:24:41.480
00:28:49.394 : en:00:28:49.394
00:31:05.030 : en:00:31:05.030
00:34:05.377 : en:00:34:05.377
00:37:49.434 : en:00:37:49.434
00:41:29.320 : en:00:41:29.320
00:46:13.270 : en:00:46:13.270
00:50:28.859 : en:00:50:28.859
00:55:04.301 : en:00:55:04.301
01:00:55.485 : en:01:00:55.485
01:03:43.653 : en:01:03:43.653
01:07:47.897 : en:01:07:47.897
01:13:49.091 : en:01:13:49.091
01:20:17.813 : en:01:20:17.813
01:23:54.363 : en:01:23:54.363
01:28:32.307 : en:01:28:32.307
01:31:42.330 : en:01:31:42.330
01:36:42.463 : en:01:36:42.463
01:42:34.648 : en:01:42:34.648
01:49:04.705 : en:01:49:04.705
01:53:21.461 : en:01:53:21.461
01:58:09.582 : en:01:58:09.582
02:03:44.584 : en:02:03:44.584
02:06:55.942 : en:02:06:55.942
02:10:55.181 : en:02:10:55.181
02:14:18.550 : en:02:14:18.550
02:17:29.408 : en:02:17:29.408
02:21:44.496 : en:02:21:44.496
02:24:10.642 : en:02:24:10.642
02:32:21.257 : en:02:32:21.257

Гарри Поттер и тайная комната

Гарри Поттер и тайная комнатаHarry Potter and the Chamber of Secrets«Зло вернулось в Хогвартс»- Страна: США, Германия, Великобритания
Жанр: фэнтези, детектив, приключения, семейный
Год выпуска: 2002
Продолжительность: 02:40:56-Перевод: Профессиональный (полное дублирование)
Субтитры: русские (Rus (forced)),
русские (Rus (full)),
английские (Eng),
Режиссер: Крис Коламбус / Chris Columbus
В ролях:Дэниэл Рэдклифф (Harry Potter,), Руперт Гринт (Ron Weasley), Эмма Уотсон (Hermione Granger), Том Фелтон (Draco Malfoy), Кеннет Брэна (Professor Gilderoy Lockhart), Бонни Райт (Ginny Weasley), Алан Рикман (Severus Snape), Ричард Харрис (Professor Albus Dumbledore), Мэгги Смит (Professor Minerva McGonagall, (в титрах: Dame Maggie Smith)), Робби Колтрейн (Rubeus Hagrid), Мэттью Льюис (Neville Longbottom), Джейсон Айзекс (Lucius Malfoy)
Дублёры: Николай Быстров (Harry Potter; Draco Malfoy), Ольга Сирина (Ron Weasley), Лина Иванова (Hermione Granger), Вадим Андреев (Professor Gilderoy Lockhart), Алексей Рязанцев (Severus Snape), Василий Бочкарев (Professor Albus Dumbledore), Людмила Ильина (Professor Minerva McGonagall), Рогволд Суховерко (Rubeus Hagrid), Алексей Костричкин (Neville Longbottom), Валерий Сторожик (Lucius Malfoy), Марина Дюжева (Molly Weasley), Рудольф Панков (Arthur Weasley)-Описание: Гарри Поттер переходит на второй курс Школы чародейства и волшебства Хогвартс. Эльф Добби предупреждает Гарри об опасности, которая поджидает его там, и просит больше не возвращаться в школу.
Юный волшебник не следует совету эльфа и становится свидетелем таинственных событий, разворачивающихся в Хогвартсе. Вскоре Гарри и его друзья узнают о существовании Тайной Комнаты и сталкиваются с новыми приключениями, пытаясь победить темные силы.-
MPAA: PG - Рекомендуется присутствие родителей-Качество: BDRip
Контейнер: MKV
Видео: AVC, 1280x532 (2.40:1), 5080 kbps, 23,976 fps, 0,311 bpp
Аудио 1: русский / AC3 / 5.1 / 48 kHz / 640 kbps / 16 bit 48kHz; (дубляж)
Аудио 2: русский / AC3 / 5.1 / 48 kHz / 448 kbps / 16 bit; 48kHz; (Гланц, отдельно)
Аудио 3: русский / AC3 / 5.1 / 48 kHz / 448 kbps / 16 bit; 48kHz; (Многоголосный С.Р.И)
Аудио 4: Английский; DTS; 1509 Kbps; CBR; 6 ch; 24 bit; 48kHz; (отдельно)
Навигация по главам: есть-

Скриншоты

Media Info

General
Unique ID : 211385534038332348931491282600535113107 (0x9F075F7BB6B4A25D805D23533765BD93)
Complete name : F:\Video\HD\Harry.Potter.Collection\2. Harry Potter and the Chamber of.Secrets\HP2.BDRip.720p.DVD9.mkv
Format : Matroska
Format version : Version 2
File size : 6.43 GiB
Duration : 2h 40mn
Overall bit rate : 5 722 Kbps
Movie name : Harry.Potter.and.the.Chamber.of.Secrets. BDRip.720p.DVD9.DXVA
Encoded date : UTC 2009-12-14 08:48:24
Writing application : mkvmerge v2.9.8 ('C'est le bon') built on Aug 13 2009 12:49:06
Writing library : libebml v0.7.7 + libmatroska v0.8.1
Video
ID : 1
Format : AVC
Format/Info : Advanced Video Codec
Format profile : High@L4.1
Format settings, CABAC : Yes
Format settings, ReFrames : 8 frames
Codec ID : V_MPEG4/ISO/AVC
Duration : 2h 40mn
Bit rate : 5 080 Kbps
Width : 1 280 pixels
Height : 532 pixels
Display aspect ratio : 2.40:1
Frame rate : 23.976 fps
Color space : YUV
Chroma subsampling : 4:2:0
Bit depth : 8 bits
Scan type : Progressive
Bits/(Pixel*Frame) : 0.311
Stream size : 5.58 GiB (87%)
Writing library : x264 core 80 r1373kMod 4322f63
Encoding settings : cabac=1 / ref=8 / deblock=1:-3:-3 / analyse=0x3:0x113 / me=umh / subme=9 / psy=1 / psy_rd=0.8:0.0 / mixed_ref=1 / me_range=32 / chroma_me=1 / trellis=0 / 8x8dct=1 / cqm=0 / deadzone=6,4 / fast_pskip=0 / chroma_qp_offset=-2 / threads=6 / sliced_threads=0 / nr=0 / decimate=0 / mbaff=0 / constrained_intra=0 / bframes=6 / b_pyramid=2 / b_adapt=2 / b_bias=0 / direct=3 / wpredb=1 / wpredp=2 / keyint=240 / keyint_min=24 / scenecut=40 / rc_lookahead=0 / rc=2pass / mbtree=0 / bitrate=5080 / ratetol=1.0 / qcomp=0.70 / qpmin=10 / qpmax=51 / qpstep=4 / cplxblur=20.0 / qblur=0.5 / vbv_maxrate=16500 / vbv_bufsize=62500 / ip_ratio=1.40 / pb_ratio=1.30 / aq=1:1.00
Language : English
Default : No
Forced : No
Audio
ID : 2
Format : AC-3
Format/Info : Audio Coding 3
Mode extension : CM (complete main)
Codec ID : A_AC3
Duration : 2h 40mn
Bit rate mode : Constant
Bit rate : 640 Kbps
Channel(s) : 6 channels
Channel positions : Front: L C R, Side: L R, LFE
Sampling rate : 48.0 KHz
Bit depth : 16 bits
Compression mode : Lossy
Stream size : 737 MiB (11%)
Title : Rus (Dub - BD.CEE -)
Language : Russian
Default : Yes
Forced : No
Text #1
ID : 3
Format : UTF-8
Codec ID : S_TEXT/UTF8
Codec ID/Info : UTF-8 Plain Text
Title : Rus (forced)
Language : Russian
Default : Yes
Forced : Yes
Text #2
ID : 4
Format : UTF-8
Codec ID : S_TEXT/UTF8
Codec ID/Info : UTF-8 Plain Text
Title : Rus (full)
Language : Russian
Default : No
Forced : No
Text #3
ID : 5
Format : UTF-8
Codec ID : S_TEXT/UTF8
Codec ID/Info : UTF-8 Plain Text
Title : Eng
Language : English
Default : No
Forced : No
Menu
00:00:00.000 : en:00:00:00.000
00:03:01.014 : en:00:03:01.014
00:07:55.558 : en:00:07:55.558
00:10:40.640 : en:00:10:40.640
00:14:07.096 : en:00:14:07.096
00:17:57.743 : en:00:17:57.743
00:22:16.126 : en:00:22:16.126
00:25:49.631 : en:00:25:49.631
00:28:50.354 : en:00:28:50.354
00:31:07.991 : en:00:31:07.991
00:35:14.195 : en:00:35:14.195
00:38:00.403 : en:00:38:00.403
00:42:47.982 : en:00:42:47.982
00:48:16.143 : en:00:48:16.143
00:52:16.133 : en:00:52:16.133
00:57:56.973 : en:00:57:56.973
01:03:13.873 : en:01:03:13.873
01:07:50.525 : en:01:07:50.525
01:11:56.145 : en:01:11:56.145
01:17:22.388 : en:01:17:22.388
01:21:33.847 : en:01:21:33.847
01:25:39.926 : en:01:25:39.926
01:29:42.252 : en:01:29:42.252
01:33:30.355 : en:01:33:30.355
01:37:42.899 : en:01:37:42.899
01:42:49.080 : en:01:42:49.080
01:47:01.624 : en:01:47:01.624
01:51:07.995 : en:01:51:07.995
01:55:26.211 : en:01:55:26.211
02:00:53.288 : en:02:00:53.288
02:04:09.776 : en:02:04:09.776
02:09:32.306 : en:02:09:32.306
02:14:32.439 : en:02:14:32.439
02:18:05.944 : en:02:18:05.944
02:21:20.222 : en:02:21:20.222
02:26:35.453 : en:02:26:35.453
02:31:43.094 : en:02:31:43.094
02:40:55.646 : en:02:40:55.646

Гарри Поттер и узник Азкабана

Гарри Поттер и узник АзкабанаHarry Potter and the Prisoner of Azkaban«Something wicked this way comes»- Страна: США, Великобритания
Жанр: фэнтези, детектив, приключения, семейный
Год выпуска: 2004
Продолжительность: 02:21:42-Перевод: Профессиональный (полное дублирование)
Субтитры: русские (Rus (forced)),
русские (Rus (full)),
английские (Eng),
Режиссер: Альфонсо Куарон / Alfonso Cuar?n
В ролях:Дэниэл Рэдклифф (Harry Potter), Руперт Гринт (Ron Weasley), Эмма Уотсон (Hermione Granger), Том Фелтон (Draco Malfoy), Гари Олдман (Sirius Black), Дэвид Тьюлис (Professor Lupin), Майкл Гэмбон (Albus Dumbledore), Алан Рикман (Professor Severus Snape), Мэгги Смит (Professor Minerva McGonagall), Робби Колтрейн (Rubeus Hagrid), Эмма Томпсон (Professor Sybil Trelawney), Дэвид Брэдли (Argus Filch)
Дублёры: Николай Быстров (Harry Potter; Draco Malfoy), Ольга Сирина (Ron Weasley), Лина Иванова (Hermione Granger), Борис Токарев (Sirius Black; Shrunken Head), Всеволод Кузнецов (Professor Lupin), Андрей Ярославцев (Albus Dumbledore), Алексей Рязанцев (Professor Severus Snape), Людмила Ильина (Professor Minerva McGonagall; Mrs. Molly Weasley; Fat Lady in Painting), Рогволд Суховерко (Rubeus Hagrid), Ирина Савина (Professor Sybil Trelawney), Вячеслав Баранов (Argus Filch; Tom the Innkeeper), Алексей Колган (Peter Pettigrew; Uncle Vernon)-Описание: В третьей части экранизации бестселлера о юном волшебнике, полюбившиеся всем герои - Гарри Поттер, Рон и Гермиона - возвращаются уже на третий курс школы чародейства и волшебства «Хогвартс». На этот раз они должны раскрыть тайну узника, сбежавшего из зловещей тюрьмы Азкабан, чье пребывание на воле создает для Гарри смертельную опасность...-
MPAA: PG - Рекомендуется присутствие родителей-Качество: BDRip
Контейнер: MKV
Видео: AVC, 1280x532 (2.40:1), 5862 kbps, 23,976 fps, 0,359 bpp
Аудио 1: русский / AC3 / 5.1 / 48 kHz / 640 kbps / 16 bit 48kHz; (дубляж)
Аудио 2: русский / DTS / 5.1 / 48 kHz / 755 kbps / 24 bit; 48kHz; (Рудой, отдельно)
Аудио 3: русский / AC3 / 5.1 / 48 kHz / 448 kbps / 16 bit; 48kHz; (Многоголосный С.Р.И)
Аудио 4: Английский; DTS; 1509 Kbps; CBR; 6 ch; 24 bit; 48kHz; (отдельно)-

Скриншоты

Media Info

General
Unique ID : 174850201021864586808273375299440432670 (0x838AEC7DB2EDF97387F6FF598363561E)
Complete name : F:\Video\HD\Harry.Potter.Collection\3. Harry Potter and the Prisoner of Azkaban\HP3.BDRip.720p.DVD9.mkv
Format : Matroska
Format version : Version 2
File size : 6.44 GiB
Duration : 2h 21mn
Overall bit rate : 6 504 Kbps
Movie name : Harry.Potter.and.the.Prisoner.of.Azkaban.BDRip.720p.DVD9.DXVA
Encoded date : UTC 2009-12-18 09:04:34
Writing application : mkvmerge v2.9.8 ('C'est le bon') built on Aug 13 2009 12:49:06
Writing library : libebml v0.7.7 + libmatroska v0.8.1
Video
ID : 1
Format : AVC
Format/Info : Advanced Video Codec
Format profile : High@L4.1
Format settings, CABAC : Yes
Format settings, ReFrames : 8 frames
Codec ID : V_MPEG4/ISO/AVC
Duration : 2h 21mn
Bit rate : 5 862 Kbps
Width : 1 280 pixels
Height : 532 pixels
Display aspect ratio : 2.40:1
Frame rate : 23.976 fps
Color space : YUV
Chroma subsampling : 4:2:0
Bit depth : 8 bits
Scan type : Progressive
Bits/(Pixel*Frame) : 0.359
Stream size : 5.68 GiB (88%)
Writing library : x264 core 80 r1373kMod 4322f63
Encoding settings : cabac=1 / ref=8 / deblock=1:-3:-2 / analyse=0x3:0x113 / me=umh / subme=9 / psy=1 / psy_rd=0.8:0.0 / mixed_ref=1 / me_range=32 / chroma_me=1 / trellis=0 / 8x8dct=1 / cqm=0 / deadzone=6,4 / fast_pskip=0 / chroma_qp_offset=-2 / threads=6 / sliced_threads=0 / nr=0 / decimate=0 / mbaff=0 / constrained_intra=0 / bframes=8 / b_pyramid=2 / b_adapt=2 / b_bias=0 / direct=1 / wpredb=1 / wpredp=2 / keyint=240 / keyint_min=24 / scenecut=40 / rc_lookahead=0 / rc=2pass / mbtree=0 / bitrate=5862 / ratetol=1.0 / qcomp=0.60 / qpmin=10 / qpmax=51 / qpstep=4 / cplxblur=20.0 / qblur=0.5 / vbv_maxrate=16500 / vbv_bufsize=62500 / ip_ratio=1.40 / pb_ratio=1.30 / aq=1:0.80
Language : English
Default : No
Forced : No
Audio
ID : 2
Format : AC-3
Format/Info : Audio Coding 3
Mode extension : CM (complete main)
Codec ID : A_AC3
Duration : 2h 21mn
Bit rate mode : Constant
Bit rate : 640 Kbps
Channel(s) : 6 channels
Channel positions : Front: L C R, Side: L R, LFE
Sampling rate : 48.0 KHz
Bit depth : 16 bits
Compression mode : Lossy
Stream size : 649 MiB (10%)
Title : Rus (Dub)
Language : Russian
Default : No
Forced : No
Text #1
ID : 3
Format : UTF-8
Codec ID : S_TEXT/UTF8
Codec ID/Info : UTF-8 Plain Text
Title : Rus (forced)
Language : Russian
Default : Yes
Forced : Yes
Text #2
ID : 4
Format : UTF-8
Codec ID : S_TEXT/UTF8
Codec ID/Info : UTF-8 Plain Text
Title : Rus (full)
Language : Russian
Default : No
Forced : No
Text #3
ID : 5
Format : UTF-8
Codec ID : S_TEXT/UTF8
Codec ID/Info : UTF-8 Plain Text
Title : Eng
Language : English
Default : No
Forced : No

Гарри Поттер и кубок огня

Гарри Поттер и кубок огняHarry Potter and the Goblet of Fire«Впереди темные и страшные времена»- Страна: США, Великобритания
Жанр: фэнтези, детектив, приключения, семейный
Год выпуска: 2005
Продолжительность: 02:37:05-Перевод: Профессиональный (полное дублирование)
Субтитры: русские (Rus (forced)),
русские (Rus (full)),
английские (Eng),
Режиссер: Майк Ньюэлл / Mike Newell
В ролях:Дэниэл Рэдклифф (Harry Potter,), Руперт Гринт (Ron Weasley), Эмма Уотсон (Hermione Granger), Брендан Глисон (Professor Alastor 'Mad­Eye' Moody), Алан Рикман (Severus Snape), Майкл Гэмбон (Albus Dumbledore), Рэйф Файнс (Lord Voldemort), Роберт Паттинсон (Cedric Diggory), Робби Колтрейн (Rubeus Hagrid), Мэгги Смит (Minerva McGonagall), Станислав Яневский (Viktor Krum), Клеманс Поэзи (Fleur Delacour)
Дублёры: Николай Быстров (Harry Potter), Алексей Костричкин (Ron Weasley), Лина Иванова (Hermione Granger), Александр Клюквин (Professor Alastor 'Mad­Eye' Moody), Алексей Рязанцев (Severus Snape), Василий Бочкарев (Albus Dumbledore), Всеволод Кузнецов (Lord Voldemort), Олег Вирозуб (Cedric Diggory), Дальвин Щербаков (Rubeus Hagrid), Людмила Ильина (Minerva McGonagall), Алексей Мясников (Viktor Krum), Татьяна Шитова (Fleur Delacour)-Описание: Гарри Поттер, Рон и Гермиона возвращаются на четвертый курс школы чародейства и волшебства «Хогвартс». При таинственных обстоятельствах Гарри отобран в число участников опасного соревнования - Турнира Трех Волшебников, однако проблема в том, что все его соперники - намного старше и сильнее.
К тому же, знаки указывают на возвращение Лорда Волдеморта. Вскоре Гарри предстоит побороться не только за победу в соревновании, но и, прежде всего, за свою жизнь...-
MPAA: PG-13 - Детям до 13 лет просмотр не желателен-Качество: BDRip
Контейнер: MKV
Видео: AVC, 1280x532 (2.40:1), 5074 kbps, 23,976 fps, 0,311 bpp
Аудио 1: русский / AC3 / 5.1 / 48 kHz / 640 kbps / 16 bit 48kHz; (дубляж)
Аудио 2: русский / DTS / 5.1 / 48 kHz / 755 kbps / 24 bit; 48kHz; (Рябов, отдельно)
Аудио 3: русский / AC3 / 5.1 / 48 kHz / 448 kbps / 16 bit; 48kHz; (Многоголосный С.Р.И)
Аудио 4: Английский; DTS; 1509 Kbps; CBR; 6 ch; 24 bit; 48kHz; (отдельно)
Навигация по главам: есть-

Скриншоты

Media Info

General
Unique ID : 225319452614176567467151129160899884590 (0xA982F2B5A663774795D1DBB85E6FF62E)
Complete name : F:\Video\HD\Harry.Potter.Collection\4. Harry Potter and the Goblet of Fire\HP4.BDRip.720p.DVD9.mkv
Format : Matroska
Format version : Version 2
File size : 6.06 GiB
Duration : 2h 37mn
Overall bit rate : 5 524 Kbps
Movie name : Harry.Potter.and.the.Goblet.of.Fire.BDRip.720p.DVD9.DXVA
Encoded date : UTC 2009-12-14 09:10:50
Writing application : mkvmerge v2.9.8 ('C'est le bon') built on Aug 13 2009 12:49:06
Writing library : libebml v0.7.7 + libmatroska v0.8.1
Video
ID : 1
Format : AVC
Format/Info : Advanced Video Codec
Format profile : High@L4.1
Format settings, CABAC : Yes
Format settings, ReFrames : 8 frames
Codec ID : V_MPEG4/ISO/AVC
Duration : 2h 37mn
Bit rate : 5 074 Kbps
Width : 1 280 pixels
Height : 532 pixels
Display aspect ratio : 2.40:1
Frame rate : 23.976 fps
Color space : YUV
Chroma subsampling : 4:2:0
Bit depth : 8 bits
Scan type : Progressive
Bits/(Pixel*Frame) : 0.311
Stream size : 5.45 GiB (90%)
Writing library : x264 core 79 r1347 5ddd61b
Encoding settings : cabac=1 / ref=8 / deblock=1:-2:-1 / analyse=0x3:0x113 / me=umh / subme=9 / psy=1 / psy_rd=1.0:0.1 / mixed_ref=1 / me_range=32 / chroma_me=1 / trellis=2 / 8x8dct=1 / cqm=0 / deadzone=21,11 / chroma_qp_offset=-3 / threads=6 / nr=0 / decimate=0 / mbaff=0 / constrained_intra=0 / bframes=6 / b_pyramid=2 / b_adapt=2 / b_bias=0 / direct=3 / wpredb=1 / wpredp=2 / keyint=240 / keyint_min=24 / scenecut=40 / rc_lookahead=0 / rc=2pass / mbtree=0 / bitrate=5074 / ratetol=1.0 / qcomp=0.60 / qpmin=10 / qpmax=51 / qpstep=4 / cplxblur=20.0 / qblur=0.5 / vbv_maxrate=16500 / vbv_bufsize=62500 / ip_ratio=1.40 / pb_ratio=1.30 / aq=1:0.80
Language : English
Default : No
Forced : No
Audio
ID : 2
Format : AC-3
Format/Info : Audio Coding 3
Mode extension : CM (complete main)
Codec ID : A_AC3
Duration : 2h 37mn
Bit rate mode : Constant
Bit rate : 448 Kbps
Channel(s) : 6 channels
Channel positions : Front: L C R, Side: L R, LFE
Sampling rate : 48.0 KHz
Bit depth : 16 bits
Compression mode : Lossy
Stream size : 503 MiB (8%)
Title : Rus (Dub -BD.CEE-)
Language : Russian
Default : Yes
Forced : No
Text #1
ID : 3
Format : UTF-8
Codec ID : S_TEXT/UTF8
Codec ID/Info : UTF-8 Plain Text
Title : Rus (forced)
Language : Russian
Default : Yes
Forced : Yes
Text #2
ID : 4
Format : UTF-8
Codec ID : S_TEXT/UTF8
Codec ID/Info : UTF-8 Plain Text
Title : Rus (full)
Language : Russian
Default : No
Forced : No
Text #3
ID : 5
Format : UTF-8
Codec ID : S_TEXT/UTF8
Codec ID/Info : UTF-8 Plain Text
Title : Eng
Language : English
Default : No
Forced : No
Menu
00:00:00.000 : en:The Riddle House
00:03:46.333 : en:The Portkey
00:06:09.000 : en:The Quidditch World Cup
00:09:49.500 : en:The Dark Mark
00:13:44.500 : en:The Triwizard Tournament
00:19:13.833 : en:The Goblet of Fire
00:23:08.000 : en:The Unforgivable Curses
00:28:59.833 : en:The Four Champions
00:36:24.500 : en:Let Events Unfold
00:39:02.666 : en:Rita Skeeter
00:41:30.000 : en:Sirius Conversation
00:45:33.666 : en:The Hungarian Horntail
00:49:04.833 : en:Transforming Malfoy
00:54:03.000 : en:The First Task
01:02:42.833 : en:Best Foot Forward
01:09:08.833 : en:An Unexpected Challenge
01:14:39.500 : en:The Yule Ball
01:22:22.666 : en:The Eggs Clue
01:30:29.333 : en:The Second Task
01:39:23.333 : en:Never Whole Again
01:42:36.333 : en:The Pensieve
01:47:16.500 : en:Dreams and Suspicions
01:50:12.666 : en:The Third Task
01:58:47.333 : en:Flesh Blood and Bone
02:01:55.000 : en:The Death Eaters
02:06:29.000 : en:Priori Incantatem
02:09:53.833 : en:Veritaserum
02:17:29.833 : en:Parting Ways
02:23:40.000 : en:End Credits

Гарри Поттер и орден Феникса

Гарри Поттер и орден ФениксаHarry Potter and the Order of the Phoenix«Выжить суждено только одному.»- Страна: США, Великобритания
Жанр: фэнтези, детектив, приключения, семейный
Год выпуска: 2007
Продолжительность: 02:18:14-Перевод: Профессиональный (полное дублирование)
Субтитры: русские (Rus (forced)),
русские (Rus (full)),
английские (Eng),
Режиссер: Дэвид Йэтс / David Yates
В ролях:Дэниэл Рэдклифф (Harry Potter,), Руперт Гринт (Ron Weasley,), Эмма Уотсон (Hermione Granger,), Гари Олдман (Sirius Black), Рэйф Файнс (Lord Voldemort), Майкл Гэмбон (Albus Percival Wulfric Brian Dumbledore), Том Фелтон (Draco Malfoy), Имелда Стонтон (Dolores Umbridge), Эванна Линч (Luna Lovegood), Алан Рикман (Severus Snape), Джейсон Айзекс (Lucius Malfoy), Мэгги Смит (Minerva McGonagall)
Дублёры: Николай Быстров (Harry Potter), Алексей Костричкин (Ron Weasley), Лина Иванова (Hermione Granger), Борис Токарев (Sirius Black), Всеволод Кузнецов (Lord Voldemort), Василий Бочкарев (Albus Percival Wulfric Brian Dumbledore), Велимир Русаков (Draco Malfoy), Ирина Бякова (Dolores Umbridge), Мария Иващенко (Luna Lovegood), Алексей Рязанцев (Severus Snape), Валерий Сторожик (Lucius Malfoy), Людмила Ильина (Minerva McGonagall)-Описание: Гарри проводит свой пятый год обучения в школе Хогвартс и обнаруживает, что многие из членов волшебного сообщества отрицают сам факт недавнего состязания юного волшебника с воплощением вселенского зла Волдемортом, делая вид, что не имеют ни малейшего представления о том, что злодей вернулся.
Опасаясь, что почтенный глава Хогвартса Альбус Дамблдор распространяет лживые слухи о возвращении Волдеморта, стремясь подорвать авторитет Министра Магии Корнелиуса Фаджа и в дальнейшем занять его место, Корнелиус назначает нового профессора защиты от темных искусств, который должен будет пристально следить за Дамблдором и студентами Хогвартса.
Но одобренный министерством курс лекций по защитной магии профессора Долорес Амбридж оказывается на практике абсолютно бесполезным - юные волшебники просто неспособны противостоять действию темных сил, угрожающих им и всему волшебному сообществу. И тогда, по настоянию своих друзей, Гермионы и Рона, Гарри берет инициативу в свои руки.
Тайно встречаясь с небольшой группой студентов, называющей себя Отрядом Дамблдора, Гарри обучает их самозащите от темных сил, готовя отважных волшебников к необычной схватке, которая ждет их впереди.-
MPAA: PG-13 - Детям до 13 лет просмотр не желателен-Качество: BDRip
Контейнер: MKV
Видео: AVC, 1280x532 (2.40:1), 5600 kbps, 23,976 fps, 0,343 bpp
Аудио 1: русский / AC3 / 5.1 / 48 kHz / 640 kbps / 16 bit 48kHz; (дубляж)
Аудио 2: украинский / AC3 / 5.1 / 48 kHz / 640 kbps / 16 bit 48kHz; (дубляж)
Аудио 3: русский / AC3 / 5.1 / 48 kHz / 448 kbps / 16 bit; 48kHz; (Рябов, отдельно)
Аудио 4: русский / AC3 / 5.1 / 48 kHz / 448 kbps / 16 bit; 48kHz; (Многоголосный С.Р.И)
Аудио 5: English; DTS; 1509 Kbps; CBR; 6 ch; 24 bit; 48kHz; (отдельно)-

Скриншоты

Media Info

General
Unique ID : 246170927652081039617944884264194717179 (0xB932CBCD3A3B7402A15EFAEF5492B5FB)
Complete name : F:\Video\HD\Harry.Potter.Collection\5. Harry Potter and the Order of the Phoenix\HP5.BDRip.720p.DVD9.mkv
Format : Matroska
Format version : Version 2
File size : 6.03 GiB
Duration : 2h 18mn
Overall bit rate : 6 242 Kbps
Movie name : Harry.Potter.and.the.Order.of.the.Phoenix.BDRip.720p.DVD9.DXVA
Encoded date : UTC 2009-12-15 16:04:24
Writing application : mkvmerge v2.9.8 ('C'est le bon') built on Aug 13 2009 12:49:06
Writing library : libebml v0.7.7 + libmatroska v0.8.1
Video
ID : 1
Format : AVC
Format/Info : Advanced Video Codec
Format profile : High@L4.1
Format settings, CABAC : Yes
Format settings, ReFrames : 8 frames
Codec ID : V_MPEG4/ISO/AVC
Duration : 2h 18mn
Bit rate : 5 600 Kbps
Width : 1 280 pixels
Height : 532 pixels
Display aspect ratio : 2.40:1
Frame rate : 23.976 fps
Color space : YUV
Chroma subsampling : 4:2:0
Bit depth : 8 bits
Scan type : Progressive
Bits/(Pixel*Frame) : 0.343
Stream size : 5.29 GiB (88%)
Writing library : x264 core 80 r1369kMod ec8e586
Encoding settings : cabac=1 / ref=8 / deblock=1:-3:-2 / analyse=0x3:0x113 / me=umh / subme=9 / psy=1 / psy_rd=0.8:0.0 / mixed_ref=1 / me_range=32 / chroma_me=1 / trellis=0 / 8x8dct=1 / cqm=0 / deadzone=6,4 / fast_pskip=0 / chroma_qp_offset=-2 / threads=6 / sliced_threads=0 / nr=0 / decimate=0 / mbaff=0 / constrained_intra=0 / bframes=9 / b_pyramid=2 / b_adapt=2 / b_bias=0 / direct=3 / wpredb=1 / wpredp=2 / keyint=240 / keyint_min=24 / scenecut=40 / rc_lookahead=0 / rc=2pass / mbtree=0 / bitrate=5600 / ratetol=1.0 / qcomp=0.60 / qpmin=10 / qpmax=51 / qpstep=4 / cplxblur=20.0 / qblur=0.5 / vbv_maxrate=16500 / vbv_bufsize=62500 / ip_ratio=1.40 / pb_ratio=1.30 / aq=1:0.80
Language : English
Default : No
Forced : No
Audio
ID : 2
Format : AC-3
Format/Info : Audio Coding 3
Mode extension : CM (complete main)
Codec ID : A_AC3
Duration : 2h 18mn
Bit rate mode : Constant
Bit rate : 640 Kbps
Channel(s) : 6 channels
Channel positions : Front: L C R, Side: L R, LFE
Sampling rate : 48.0 KHz
Bit depth : 16 bits
Compression mode : Lossy
Stream size : 633 MiB (10%)
Title : Rus (Dub - BD.CEE-)
Language : Russian
Default : Yes
Forced : No
Text #1
ID : 3
Format : UTF-8
Codec ID : S_TEXT/UTF8
Codec ID/Info : UTF-8 Plain Text
Title : Rus (forced)
Language : Russian
Default : Yes
Forced : Yes
Text #2
ID : 4
Format : UTF-8
Codec ID : S_TEXT/UTF8
Codec ID/Info : UTF-8 Plain Text
Title : Rus (full)
Language : Russian
Default : No
Forced : No
Text #3
ID : 5
Format : UTF-8
Codec ID : S_TEXT/UTF8
Codec ID/Info : UTF-8 Plain Text
Title : Eng
Language : English
Default : No
Forced : No

Гарри Поттер и Принц-полукровка

Гарри Поттер и Принц-полукровкаHarry Potter and the Half-Blood Prince«Секрет темных сил раскрыт»- Страна: США, Великобритания
Жанр: фэнтези, детектив, приключения, семейный
Год выпуска: 2009
Продолжительность: 02:33:31-Перевод: Профессиональный (полное дублирование)
Субтитры: русские (Rus (forced)),
русские (Rus (full)),
украинские (Ukr (forced)),
украинские (Ukr (full)),
английские (Eng),
Режиссер: Дэвид Йэтс / David Yates
В ролях:Дэниэл Рэдклифф (Harry Potter), Руперт Гринт (Ron Weasley), Эмма Уотсон (Hermione Granger), Майкл Гэмбон (Professor Albus Dumbledore), Джим Броудбент (Professor Horace Slughorn), Бонни Райт (Ginny Weasley), Хелена Бонем Картер (Bellatrix Lestrange), Алан Рикман (Professor Severus Snape), Том Фелтон (Draco Malfoy), Эванна Линч (Luna Lovegood), Робби Колтрейн (Rubeus Hagrid), Мэгги Смит (Professor Minerva McGonagall)
Дублёры: Николай Быстров (Harry Potter), Алексей Костричкин (Ron Weasley), Лина Иванова (Hermione Granger), Василий Бочкарев (Professor Albus Dumbledore), Алексей Борзунов (Professor Horace Slughorn), Полина Чекан (Ginny Weasley), Наталия Вдовина (Bellatrix Lestrange), Алексей Рязанцев (Professor Severus Snape), Велимир Русаков (Draco Malfoy), Мария Иващенко (Luna Lovegood), Дальвин Щербаков (Rubeus Hagrid), Людмила Ильина (Professor Minerva McGonagall)-Описание: Теперь не только мир волшебников, но и мир маглов ощущает на себе все возрастающую силу Волан-де-Морта, а Хогвартс уже никак не назовешь надежным убежищем, каким он был раньше. Гарри подозревает, что в самом замке затаилась некая опасность, но Дамблдор больше сосредоточен на том, чтобы подготовить его к финальной схватке, которая, как он знает, уже не за горами. Вместе они пытаются разгадать секрет бессмертия Волан-де-Морта, а для этого Дамблдор приглашает на должность преподавателя по зельеварению своего старинного друга и коллегу - профессора Горация Слизнорта, который обожает устраивать вечеринки для избранных и гордится своими обширными связями в высших кругах. Но этот бонвиван и не подозревает, что как раз от него Дамблдор надеется заполучить самую важную информацию о крестражах.
Тем временем учеников атакуют самые разные враги, а подростковые эмоции хлещут через край. Гарри начинает понимать, что становится все более неравнодушным к Джинни, однако, и Дин Томас тоже. А Лаванда Браун вбила себе в голову, что Рон - тот самый единственный, которого она ждет, да вот только не учла волшебного эффекта шоколадных конфет Ромильды Вейн! Ну и, наконец, Гермиона пылает жгучей ревностью, но старается не показывать своих чувств. Пока романтические отношения расцветают, лишь один ученик остается в стороне. Он твердо намерен оставить свою метку, темную метку. Любовь витает в воздухе, но впереди ждет беда, и Хогвартс, возможно, уже никогда не будет прежним.-
MPAA: PG - Рекомендуется присутствие родителей-Качество: BDRip
Контейнер: MKV
Видео: AVC, 1280x534 (2.40:1), 5600 kbps, 23,976 fps, 0,342 bpp
Аудио 1: русский / AC3 / 5.1 / 48 kHz / 448 kbps / 16 bit 48kHz; (дубляж)
Аудио 2: украинский / AC3 / 5.1 / 48 kHz / 448 kbps / 16 bit 48kHz; (дубляж отдельно)
Аудио 3: русский / AC3 / 5.1 / 48 kHz / 755 kbps / 24 bit; 48kHz; (Многоголосный Нордиск)
Аудио 4: English; DTS; 1509 Kbps; CBR; 6 ch; 24 bit; 48kHz; (отдельно)
Навигация по главам: есть-

Скриншоты

Media Info

General
Unique ID : 191559855626629473076149919894077583193 (0x901D1611D16CE99FA58C19351B922F59)
Complete name : F:\Video\HD\Harry.Potter.Collection\6. Harry Potter and the Half-blood Prince\HP6.BDRip.720p.DVD9.mkv
Format : Matroska
Format version : Version 2
File size : 6.49 GiB
Duration : 2h 33mn
Overall bit rate : 6 049 Kbps
Movie name : Harry Potter and the half-blood prince. BDRip.720p.DVD9.DXVA
Encoded date : UTC 2009-12-14 07:56:40
Writing application : mkvmerge v2.9.8 ('C'est le bon') built on Aug 13 2009 12:49:06
Writing library : libebml v0.7.7 + libmatroska v0.8.1
Video
ID : 1
Format : AVC
Format/Info : Advanced Video Codec
Format profile : High@L4.1
Format settings, CABAC : Yes
Format settings, ReFrames : 8 frames
Codec ID : V_MPEG4/ISO/AVC
Duration : 2h 33mn
Bit rate : 5 600 Kbps
Width : 1 280 pixels
Height : 534 pixels
Display aspect ratio : 2.40:1
Frame rate : 23.976 fps
Color space : YUV
Chroma subsampling : 4:2:0
Bit depth : 8 bits
Scan type : Progressive
Bits/(Pixel*Frame) : 0.342
Stream size : 5.88 GiB (91%)
Writing library : x264 core 80 r1369kMod ec8e586
Encoding settings : cabac=1 / ref=8 / deblock=1:-3:-3 / analyse=0x3:0x113 / me=umh / subme=9 / psy=1 / psy_rd=0.8:0.0 / mixed_ref=1 / me_range=32 / chroma_me=1 / trellis=0 / 8x8dct=1 / cqm=0 / deadzone=6,4 / fast_pskip=0 / chroma_qp_offset=-2 / threads=6 / sliced_threads=0 / nr=0 / decimate=0 / mbaff=0 / constrained_intra=0 / bframes=6 / b_pyramid=2 / b_adapt=2 / b_bias=0 / direct=3 / wpredb=1 / wpredp=2 / keyint=240 / keyint_min=24 / scenecut=40 / rc_lookahead=0 / rc=2pass / mbtree=0 / bitrate=5600 / ratetol=1.0 / qcomp=0.70 / qpmin=10 / qpmax=51 / qpstep=4 / cplxblur=20.0 / qblur=0.5 / vbv_maxrate=16500 / vbv_bufsize=62500 / ip_ratio=1.40 / pb_ratio=1.30 / aq=1:1.00
Language : English
Default : No
Forced : No
Audio
ID : 2
Format : AC-3
Format/Info : Audio Coding 3
Mode extension : CM (complete main)
Codec ID : A_AC3
Duration : 2h 33mn
Bit rate mode : Constant
Bit rate : 448 Kbps
Channel(s) : 6 channels
Channel positions : Front: L C R, Side: L R, LFE
Sampling rate : 48.0 KHz
Bit depth : 16 bits
Compression mode : Lossy
Stream size : 492 MiB (7%)
Title : Rus
Language : Russian
Default : Yes
Forced : No
Text #1
ID : 3
Format : UTF-8
Codec ID : S_TEXT/UTF8
Codec ID/Info : UTF-8 Plain Text
Title : Rus (forced)
Language : Russian
Default : Yes
Forced : Yes
Text #2
ID : 4
Format : UTF-8
Codec ID : S_TEXT/UTF8
Codec ID/Info : UTF-8 Plain Text
Title : Rus (full)
Language : Russian
Default : No
Forced : No
Text #3
ID : 5
Format : UTF-8
Codec ID : S_TEXT/UTF8
Codec ID/Info : UTF-8 Plain Text
Title : Ukr (forced)
Language : Ukrainian
Default : No
Forced : Yes
Text #4
ID : 6
Format : UTF-8
Codec ID : S_TEXT/UTF8
Codec ID/Info : UTF-8 Plain Text
Title : Ukr (full)
Language : Ukrainian
Default : No
Forced : No
Text #5
ID : 7
Format : UTF-8
Codec ID : S_TEXT/UTF8
Codec ID/Info : UTF-8 Plain Text
Title : Eng
Language : English
Default : No
Forced : No
Menu
00:00:00.000 : en:00:00:00.000
00:05:28.495 : en:00:05:28.495
00:12:13.942 : en:00:12:13.942
00:14:57.146 : en:00:14:57.146
00:18:43.205 : en:00:18:43.205
00:22:30.516 : en:00:22:30.516
00:27:36.029 : en:00:27:36.029
00:32:04.631 : en:00:32:04.631
00:37:48.224 : en:00:37:48.224
00:44:48.352 : en:00:44:48.352
00:49:31.760 : en:00:49:31.760
00:54:55.375 : en:00:54:55.375
01:00:00.305 : en:01:00:00.305
01:03:09.661 : en:01:03:09.661
01:05:57.162 : en:01:05:57.162
01:09:13.691 : en:01:09:13.691
01:14:00.102 : en:01:14:00.102
01:21:09.782 : en:01:21:09.782
01:26:31.478 : en:01:26:31.478
01:33:37.403 : en:01:33:37.403
01:39:57.325 : en:01:39:57.325
01:43:16.273 : en:01:43:16.273
01:48:24.748 : en:01:48:24.748
01:52:30.118 : en:01:52:30.118
01:56:53.673 : en:01:56:53.673
02:02:11.741 : en:02:02:11.741
02:08:33.539 : en:02:08:33.539
02:15:00.301 : en:02:15:00.301
02:19:08.048 : en:02:19:08.048
02:23:54.125 : en:02:23:54.125

Гарри Поттер и дары смерти: Часть I

Гарри Поттер и дары смерти: Часть IHarry Potter and the Deathly Hallows: Part 1«Опасность повсюду»- Страна: США, Великобритания
Жанр: фэнтези, драма, детектив, приключения
Год выпуска: 2010
Продолжительность: 02:26:05-Перевод: Профессиональный (полное дублирование)
Субтитры: русские (Форсированные),
русские (Полные),
английские,
Режиссер: Дэвид Йэтс / David Yates
В ролях:Дэниэл Рэдклифф (Harry Potter,), Руперт Гринт (Ron Weasley,), Эмма Уотсон (Hermione Granger,), Том Фелтон (Draco Malfoy), Бонни Райт (Ginny Weasley), Алан Рикман (Professor Severus Snape), Рэйф Файнс (Lord Voldemort), Хелена Бонем Картер (Bellatrix Lestrange), Майкл Гэмбон (Professor Albus Dumbledore), Брендан Глисон (Alastor 'Mad-Eye' Moody), Джон Хёрт (Ollivander), Эванна Линч (Luna Lovegood)
Дублёры: Николай Быстров (Harry Potter), Алексей Костричкин (Ron Weasley), Лина Иванова (Hermione Granger), Велимир Русаков (Draco Malfoy), Полина Чекан (Ginny Weasley), Алексей Рязанцев (Professor Severus Snape), Всеволод Кузнецов (Lord Voldemort), Наталия Вдовина (Bellatrix Lestrange), Василий Бочкарев (Professor Albus Dumbledore), Борис Быстров (Alastor 'Mad-Eye' Moody), Василий Стоноженко (Ollivander), Мария Иващенко (Luna Lovegood)-Описание: Гарри Поттера ждёт самое страшное испытание в жизни - смертельная схватка с Волан-де-Мортом. Ждать помощи не от кого - Гарри одинок, как никогда... Друзья и враги Гарри предстают в совершенно неожиданном свете. Граница между Добром и Злом становится всё призрачнее...-
MPAA: PG-13 - Детям до 13 лет просмотр не желателен-Качество: BDRip
Контейнер: MKV
Видео: AVC, 1280x536 (2.40:1), 3077 kbps, 23,976 fps, 0,187 bpp
Аудио №1: русский / AC3 / 5.1 / 48 kHz / 640 kbps / 16 bit; 48kHz
Аудио №2: украинский / AC3 / 5.1 / 48 kHz / 640 kbps / 16 bit; 48kHz (отдельно)
Аудио №3: английский / DTS / 5.1 / 48 kHz / 1510 kbps / 24 bit; 48kHz (отдельно)
Навигация по главам: есть-

Скриншоты

Media Info

General
Unique ID : 187105207369900019814903593482786786019 (0x8CC326F41E3F2AA381B03DD224B54AE3)
Complete name : F:\Video\HD\Harry.Potter.Collection\7.1 Harry Potter and the Deathly Hallows\Harry.Potter.and.the.Deathly.Hallows.Part.1.2010.BluRay.720p.mkv
Format : Matroska
Format version : Version 2
File size : 5.58 GiB
Duration : 2h 26mn
Overall bit rate : 5 464 Kbps
Movie name : Harry Potter and the Deathly Hallows. Part.1. (2010) - Release by shartm & doc.logan
Encoded date : UTC 2011-04-05 14:41:59
Writing application : mkvmerge v4.6.0 ('Still Crazy After All These Years') built on Mar 10 2011 02:50:32
Writing library : libebml v1.2.0 + libmatroska v1.1.0
Attachment : Yes
Video
ID : 1
Format : AVC
Format/Info : Advanced Video Codec
Format profile : High@L4.1
Format settings, CABAC : Yes
Format settings, ReFrames : 11 frames
Codec ID : V_MPEG4/ISO/AVC
Duration : 2h 26mn
Bit rate : 3 078 Kbps
Width : 1 280 pixels
Height : 536 pixels
Display aspect ratio : 2.40:1
Frame rate : 23.976 fps
Color space : YUV
Chroma subsampling : 4:2:0
Bit depth : 8 bits
Scan type : Progressive
Bits/(Pixel*Frame) : 0.187
Stream size : 3.14 GiB (56%)
Title : Harry.Potter.and.the.Deathly.Hallows.Part.1.2010.720p.BluRay.[shartm]
Writing library : x264 core 114 r1924 08d04a4
Encoding settings : cabac=1 / ref=11 / deblock=1:-3:-2 / analyse=0x3:0x113 / me=umh / subme=10 / psy=1 / psy_rd=0.95:0.10 / mixed_ref=1 / me_range=32 / chroma_me=1 / trellis=2 / 8x8dct=1 / cqm=0 / deadzone=21,11 / fast_pskip=0 / chroma_qp_offset=-3 / threads=9 / sliced_threads=0 / nr=0 / decimate=1 / interlaced=0 / constrained_intra=0 / bframes=12 / b_pyramid=2 / b_adapt=2 / b_bias=0 / direct=1 / weightb=1 / open_gop=0 / weightp=2 / keyint=250 / keyint_min=23 / scenecut=40 / intra_refresh=0 / rc_lookahead=40 / rc=crf / mbtree=0 / crf=18.0 / qcomp=0.70 / qpmin=10 / qpmax=51 / qpstep=4 / vbv_maxrate=50000 / vbv_bufsize=62500 / crf_max=0.0 / nal_hrd=none / ip_ratio=1.40 / pb_ratio=1.30 / aq=1:0.90
Language : English
Default : Yes
Forced : No
Audio #1
ID : 2
Format : AC-3
Format/Info : Audio Coding 3
Mode extension : CM (complete main)
Codec ID : A_AC3
Duration : 2h 26mn
Bit rate mode : Constant
Bit rate : 384 Kbps
Channel(s) : 6 channels
Channel positions : Front: L C R, Side: L R, LFE
Sampling rate : 48.0 KHz
Bit depth : 16 bits
Compression mode : Lossy
Stream size : 401 MiB (7%)
Title : AC3 5.1 384 kbps [Дублированный] (DVD R5)
Language : Russian
Default : Yes
Forced : No
Audio #2
ID : 3
Format : AC-3
Format/Info : Audio Coding 3
Mode extension : CM (complete main)
Codec ID : A_AC3
Duration : 2h 26mn
Bit rate mode : Constant
Bit rate : 384 Kbps
Channel(s) : 6 channels
Channel positions : Front: L C R, Side: L R, LFE
Sampling rate : 48.0 KHz
Bit depth : 16 bits
Compression mode : Lossy
Stream size : 401 MiB (7%)
Title : AC3 5.1 384 kbps [Дублированный] (DVD R5)
Language : Ukrainian
Default : No
Forced : No
Audio #3
ID : 4
Format : DTS
Format/Info : Digital Theater Systems
Codec ID : A_DTS
Duration : 2h 26mn
Bit rate mode : Constant
Bit rate : 1 510 Kbps
Channel(s) : 6 channels
Channel positions : Front: L C R, Side: L R, LFE
Sampling rate : 48.0 KHz
Bit depth : 24 bits
Compression mode : Lossy
Delay relative to video : 33ms
Stream size : 1.54 GiB (28%)
Title : DTS 5.1 1536 kbps
Language : English
Default : No
Forced : No
Text #1
ID : 5
Format : UTF-8
Codec ID : S_TEXT/UTF8
Codec ID/Info : UTF-8 Plain Text
Title : Форсированные
Language : Russian
Default : Yes
Forced : Yes
Text #2
ID : 6
Format : UTF-8
Codec ID : S_TEXT/UTF8
Codec ID/Info : UTF-8 Plain Text
Title : Полные
Language : Russian
Default : No
Forced : No
Text #3
ID : 7
Format : UTF-8
Codec ID : S_TEXT/UTF8
Codec ID/Info : UTF-8 Plain Text
Language : English
Default : No
Forced : No
Menu
00:00:00.000 : en:00:00:00.000
00:04:18.508 : en:00:04:18.508
00:09:46.628 : en:00:09:46.628
00:15:16.207 : en:00:15:16.207
00:19:13.569 : en:00:19:13.569
00:26:04.229 : en:00:26:04.229
00:31:37.771 : en:00:31:37.771
00:35:43.308 : en:00:35:43.308
00:41:37.537 : en:00:41:37.537
00:45:45.618 : en:00:45:45.618
00:50:14.094 : en:00:50:14.094
00:55:02.716 : en:00:55:02.716
00:58:31.174 : en:00:58:31.174
01:03:41.359 : en:01:03:41.359
01:10:02.198 : en:01:10:02.198
01:14:30.924 : en:01:14:30.924
01:18:48.849 : en:01:18:48.849
01:22:17.599 : en:01:22:17.599
01:24:55.090 : en:01:24:55.090
01:28:03.194 : en:01:28:03.194
01:32:34.173 : en:01:32:34.173
01:37:40.229 : en:01:37:40.229
01:42:37.568 : en:01:42:37.568
01:47:54.134 : en:01:47:54.134
01:53:48.112 : en:01:53:48.112
01:57:30.960 : en:01:57:30.960
02:01:27.989 : en:02:01:27.989
02:05:42.159 : en:02:05:42.159
02:09:42.733 : en:02:09:42.733
02:13:16.029 : en:02:13:16.029
02:14:47.120 : en:02:14:47.120

Гарри Поттер и дары смерти: Часть II

Гарри Поттер и дары смерти: Часть IIHarry Potter and the Deathly Hallows: Part 2«Все закончится»- Страна: США, Великобритания
Жанр: фэнтези, драма, детектив, приключения
Год выпуска: 2011
Продолжительность: 02:10:26-Перевод: Профессиональный (полное дублирование)
Субтитры: русские (Full),
английские (SDH),
Режиссер: Дэвид Йэтс / David Yates
В ролях:Дэниэл Рэдклифф (Harry Potter,), Руперт Гринт (Ron Weasley,), Эмма Уотсон (Hermione Granger,), Хелена Бонем Картер (Bellatrix Lestrange), Робби Колтрейн (Rubeus Hagrid), Уорвик Дэвис (Griphook / Professor Filius Flitwick), Рэйф Файнс (Lord Voldemort), Майкл Гэмбон (Professor Albus Dumbledore), Джон Хёрт (Ollivander), Джейсон Айзекс (Lucius Malfoy), Гари Олдман (Sirius Black), Алан Рикман (Professor Severus Snape)
Дублёры: Николай Быстров (Harry Potter), Алексей Костричкин (Ron Weasley), Лина Иванова (Hermione Granger), Наталия Вдовина (Bellatrix Lestrange), Дальвин Щербаков (Rubeus Hagrid), Всеволод Кузнецов (Lord Voldemort), Василий Бочкарев (Professor Albus Dumbledore), Валерий Сторожик (Lucius Malfoy), Борис Токарев (Sirius Black), Алексей Рязанцев (Professor Severus Snape), Людмила Ильина (Professor Minerva McGonagall), Андрей Казанцев (Remus Lupin)-Описание: В грандиозной последней главе битва между добрыми и злыми силами мира волшебников перерастает во всеобщую войну. Ставки ещё никогда не были так высоки, а поиск убежища - столь сложен. И быть может именно Гарри Поттеру придется пожертвовать всем в финальном сражении с Волан-де-Мортом. Способен ли наш герой спасти мир? И всё закончится здесь.-
MPAA: PG-13 - Детям до 13 лет просмотр не желателен-Качество: BDRip
Контейнер: MKV
Видео: AVC, 1280x534 (2.40:1), 4688 kbps, 23,976 fps, 0,286 bpp
Аудио 1: русский / AC3 / 5.1 / 48 kHz / 640 kbps / 16 bit 48kHz; (дубляж)
Аудио 2: украинский / AC3 / 5.1 / 48 kHz / 640 kbps / 16 bit 48kHz; (дубляж)
Аудио 3: Английский; DTS; 1509 Kbps; CBR; 6 ch; 24 bit; 48kHz;
Навигация по главам: есть-

Скриншоты

Media Info

General
Unique ID : 236893064354728851516034819246683922779 (0xB237F1D2FFCC6AC4BAAD65F8B961215B)
Complete name : F:\Video\HD\Harry.Potter.Collection\7.2 Harry Potter and the Deathly Hallows. Part II\Harry.Potter.and.the.Deathly.Hallows.Part.2.2011.D.BDRip.720p.mkv
Format : Matroska
Format version : Version 2
File size : 6.81 GiB
Duration : 2h 10mn
Overall bit rate : 7 479 Kbps
Movie name : BlackSnow
Encoded date : UTC 2011-11-10 15:39:45
Writing application : mkvmerge v3.4.0 ('Rapunzel') сборка от May 15 2010 09:38:20
Writing library : libebml v0.8.0 + libmatroska v0.9.0
Video
ID : 1
Format : AVC
Format/Info : Advanced Video Codec
Format profile : High@L4.1
Format settings, CABAC : Yes
Format settings, ReFrames : 12 frames
Codec ID : V_MPEG4/ISO/AVC
Duration : 2h 10mn
Bit rate : 4 688 Kbps
Width : 1 280 pixels
Height : 534 pixels
Display aspect ratio : 2.40:1
Frame rate : 23.976 fps
Color space : YUV
Chroma subsampling : 4:2:0
Bit depth : 8 bits
Scan type : Progressive
Bits/(Pixel*Frame) : 0.286
Stream size : 4.14 GiB (61%)
Title : Harry.Potter.and.the.Deathly.Hallows.Part.2.2011.720p.BluRay.DTS.x264-HiDt
Writing library : x264 core 119 r2106 07efeb4
Encoding settings : cabac=1 / ref=12 / deblock=1:-3:-3 / analyse=0x3:0x113 / me=tesa / subme=11 / psy=1 / psy_rd=0.96:0.04 / mixed_ref=1 / me_range=48 / chroma_me=1 / trellis=2 / 8x8dct=1 / cqm=0 / deadzone=21,11 / fast_pskip=0 / chroma_qp_offset=-3 / threads=12 / sliced_threads=0 / nr=0 / decimate=1 / interlaced=0 / bluray_compat=0 / constrained_intra=0 / bframes=6 / b_pyramid=2 / b_adapt=2 / b_bias=0 / direct=3 / weightb=1 / open_gop=0 / weightp=2 / keyint=250 / keyint_min=23 / scenecut=40 / intra_refresh=0 / rc_lookahead=80 / rc=2pass / mbtree=1 / bitrate=4688 / ratetol=1.0 / qcomp=0.60 / qpmin=0 / qpmax=69 / qpstep=4 / cplxblur=20.0 / qblur=0.5 / vbv_maxrate=40000 / vbv_bufsize=40000 / nal_hrd=none / ip_ratio=1.37 / aq=2:0.90 / zones=169800,187658,b=0.1
Language : English
Default : No
Forced : No
Audio #1
ID : 2
Format : AC-3
Format/Info : Audio Coding 3
Mode extension : CM (complete main)
Codec ID : A_AC3
Duration : 2h 10mn
Bit rate mode : Constant
Bit rate : 640 Kbps
Channel(s) : 6 channels
Channel positions : Front: L C R, Side: L R, LFE
Sampling rate : 48.0 KHz
Bit depth : 16 bits
Compression mode : Lossy
Stream size : 597 MiB (9%)
Title : DUB CCE
Language : Russian
Default : Yes
Forced : No
Audio #2
ID : 3
Format : AC-3
Format/Info : Audio Coding 3
Mode extension : CM (complete main)
Codec ID : A_AC3
Duration : 2h 10mn
Bit rate mode : Constant
Bit rate : 640 Kbps
Channel(s) : 6 channels
Channel positions : Front: L C R, Side: L R, LFE
Sampling rate : 48.0 KHz
Bit depth : 16 bits
Compression mode : Lossy
Stream size : 597 MiB (9%)
Title : DUB CCE
Default : No
Forced : No
Audio #3
ID : 4
Format : DTS
Format/Info : Digital Theater Systems
Codec ID : A_DTS
Duration : 2h 10mn
Bit rate mode : Constant
Bit rate : 1 510 Kbps
Channel(s) : 6 channels
Channel positions : Front: L C R, Side: L R, LFE
Sampling rate : 48.0 KHz
Bit depth : 24 bits
Compression mode : Lossy
Stream size : 1.38 GiB (20%)
Title : Original
Language : English
Default : No
Forced : No
Text #1
ID : 5
Format : UTF-8
Codec ID : S_TEXT/UTF8
Codec ID/Info : UTF-8 Plain Text
Title : Full
Language : Russian
Default : No
Forced : No
Text #2
ID : 6
Format : UTF-8
Codec ID : S_TEXT/UTF8
Codec ID/Info : UTF-8 Plain Text
Title : SDH
Language : English
Default : Yes
Forced : No
Menu
00:00:00.000 : :1. Shell Cottage
00:02:58.219 : :2. Griphook's Price
00:06:21.172 : :3. He's After You
00:10:21.871 : :4. Gringotts
00:14:27.992 : :5. Copping the Cup
00:20:05.621 : :6. Exit the Dragon
00:22:47.783 : :7. Final Hiding Place
00:25:38.620 : :8. Aberforth Dumbledore
00:30:46.803 : :9. Hogwarts Reunion
00:34:33.654 : :10. Give Me Harry Potter
00:40:32.263 : :11. Duty To Our School
00:45:52.249 : :12. You Need Only Ask
00:50:15.470 : :13. Blow For Blow
00:54:41.027 : :14. Finding the Diadem
00:59:01.245 : :15. Fiendfyre
01:03:42.067 : :16. He Will Come To Me
01:07:06.063 : :17. Your Mother's Eyes
01:11:24.488 : :18. Confront Your Fate
01:14:38.932 : :19. Visions of a Life
01:23:40.848 : :20. I Open At the Close
01:29:17.727 : :21. The Boy Who Lived
01:31:25.020 : :22. King's Cross
01:36:37.666 : :23. Declare Yourself
01:41:09.104 : :24. Not Over
01:46:42.312 : :25. The Wand's Choice
01:50:18.361 : :26. The Wizard's Choice
01:54:16.682 : :27. Nineteen Years Later
01:58:12.876 : :28. End Credits
Рипы (как наверно и почти весь релиз) были сделаны Shartm.
Внимание. Раздача будет обновлена. Собираюсь заменить рипы на свои. Качество лучше не будет (эти рипы и так обладают максимальным качеством), но надеюсь уменьшить размер с учетом нынешних возможностей кодека.

[Цитировать]



Показать сообщения:    

Текущее время: 02-Дек 21:06

Часовой пояс: UTC + 3


Вы не можете начинать темы
Вы не можете отвечать на сообщения
Вы не можете редактировать свои сообщения
Вы не можете удалять свои сообщения
Вы не можете голосовать в опросах
Вы не можете прикреплять файлы к сообщениям
Вы не можете скачивать файлы

!ВНИМАНИЕ!
Сайт не предоставляет электронные версии произведений, а занимается лишь коллекционированием и каталогизацией ссылок, присылаемых и публикуемых на форуме нашими читателями. Если вы являетесь правообладателем какого-либо представленного материала и не желаете, чтобы ссылка на него находилась в нашем каталоге, свяжитесь с нами, и мы незамедлительно удалим ее. Файлы для обмена на трекере предоставлены пользователями сайта, и администрация не несет ответственности за их содержание. Просьба не заливать файлы, защищенные авторскими правами, а также файлы нелегального содержания!