[ Сегодня идет свободное скачивание без начисления Download ]


Статистика раздачи
Нет
 
   
 
Top  
 
 
Джон Картер / John Carter
«В этом мире у каждого есть второй шанс»
- Страна: США
Студия: Walt Disney Pictures
Жанр: фантастика, фэнтези, боевик, приключения
Год выпуска: 2012
Продолжительность: 02:12:01
Перевод 1: Профессиональный (дублированный) лицензия
Перевод 2: Авторский (одноголосый закадровый) А. Ю. Гаврилов
Перевод 3: Украинский (профессиональный дублированный) лицензия
Cубтитры: русские (forced+full) + английские (forced+full+SDH+SDH-Colored)
Оригинальная аудиодорожка: английский
Режиссер: Эндрю Стэнтон / Andrew Stanton
В ролях: Тейлор Китч, Линн Коллинз, Марк Стронг, Доминик Уэст, Брайан Крэнстон, Саманта Мортон, Уиллем Дефо, Томас Хейден Чёрч, Кирен Хайдз, Джеймс Пьюрфой, Полли Уокер, Дэрил Сабара.
Описание: Ветеран Гражданской войны в США Джон Картер против своей воли оказывается на Марсе, где попадает в плен к воинственным четырехметровым туземцам. Картеру предстоит не только спастись самому, но и спасти принцессу Дею Торис из Гелиума.-Рейтинг
imdb.com: 6.60 (133 638)
kinopoisk.ru: 7.018 (45 409)
MPAA: - детям до 13 лет просмотр не желателен-Сэмпл: http://rusfolder.com/36596105-Тип релиза: BDRemux 1080p
Контейнер: MKV
Видео: H.264/AVC, 1920x1080 (16:9), 23.976 fps, 26000 kbps
Аудио 1: AC3, 3/2 (L,C,R,l,r) + LFE ch / 48 kHz / 16-bit / 640 kbps (Rus)
Аудио 2: DTS-HD MA, 7.1 / 48 kHz / 24-bit / 3738 kbps (DTS Core: 5.1 / 48 kHz / 24-bit /1509 kbps) (AVO)
Аудио 3: AC3, 3/2 (L,C,R,l,r) + LFE ch / 48 kHz / 16-bit / 640 kbps (Ukr)
Аудио 4: DTS-HD MA, 7.1 / 48 kHz / 24-bit / 5340 kbps (DTS Core: 5.1 / 48 kHz / 24-bit /1509 kbps) (Eng)
Формат субтитров: softsub (SRT)
-

MediaInfo

General
Unique ID : 200582072080572261089426606939239928742 (0x96E6B3AF3DCB502CAE6F690BA700D3A6)
Complete name : D\John.Carter.2012.MPEG-4-AVC.BluRay-Remux.1080p.mkv
Format : Matroska
Format version : Version 2
File size : 34.5 GiB
Duration : 2h 12mn
Overall bit rate mode : Variable
Overall bit rate : 37.4 Mbps
Movie name : --SCHUMAHER--
Encoded date : UTC 2013-05-28 08:03:51
Writing application : mkvmerge v5.0.1 ('Es ist Sommer') built on Oct 9 2011 11:55:43
Writing library : libebml v1.2.2 + libmatroska v1.3.0
Video
ID : 1
Format : AVC
Format/Info : Advanced Video Codec
Format profile : High@L4.1
Format settings, CABAC : Yes
Format settings, ReFrames : 4 frames
Format settings, GOP : M=3, N=12
Codec ID : V_MPEG4/ISO/AVC
Duration : 2h 12mn
Bit rate mode : Variable
Bit rate : 30.6 Mbps
Maximum bit rate : 37.0 Mbps
Width : 1 920 pixels
Height : 1 080 pixels
Display aspect ratio : 16:9
Frame rate mode : Constant
Frame rate : 23.976 fps
Color space : YUV
Chroma subsampling : 4:2:0
Bit depth : 8 bits
Scan type : Progressive
Bits/(Pixel*Frame) : 0.616
Stream size : 28.2 GiB (82%)
Language : English
Default : Yes
Forced : Yes
Audio #1
ID : 2
Format : AC-3
Format/Info : Audio Coding 3
Mode extension : CM (complete main)
Format settings, Endianness : Big
Codec ID : A_AC3
Duration : 2h 12mn
Bit rate mode : Constant
Bit rate : 640 Kbps
Channel(s) : 6 channels
Channel positions : Front: L C R, Side: L R, LFE
Sampling rate : 48.0 KHz
Bit depth : 16 bits
Compression mode : Lossy
Stream size : 604 MiB (2%)
Title : Dub AC3 5.1 @ 640 kbps
Language : Russian
Default : Yes
Forced : Yes
Audio #2
ID : 3
Format : DTS
Format/Info : Digital Theater Systems
Format profile : MA / Core
Codec ID : A_DTS
Duration : 2h 12mn
Bit rate mode : Variable
Bit rate : 1 597 Kbps / 1 510 Kbps
Channel(s) : 8 channels / 6 channels
Channel positions : Front: L C R, Side: L R, Back: L R, LFE / Front: L C R, Side: L R, LFE
Sampling rate : 48.0 KHz
Bit depth : 24 bits
Compression mode : Lossless / Lossy
Title : AVO Gavrilov DTS-HD MA 7.1 @ 3058 kbps
Language : Russian
Default : No
Forced : No
Audio #3
ID : 4
Format : AC-3
Format/Info : Audio Coding 3
Mode extension : CM (complete main)
Format settings, Endianness : Big
Codec ID : A_AC3
Duration : 2h 12mn
Bit rate mode : Constant
Bit rate : 640 Kbps
Channel(s) : 6 channels
Channel positions : Front: L C R, Side: L R, LFE
Sampling rate : 48.0 KHz
Bit depth : 16 bits
Compression mode : Lossy
Stream size : 604 MiB (2%)
Title : Dub AC3 5.1 @ 640 kbps
Language : Ukrainian
Default : No
Forced : No
Audio #4
ID : 5
Format : DTS
Format/Info : Digital Theater Systems
Format profile : MA / Core
Codec ID : A_DTS
Duration : 2h 12mn
Bit rate mode : Variable
Bit rate : 3 148 Kbps / 1 510 Kbps
Channel(s) : 8 channels / 6 channels
Channel positions : Front: L C R, Side: L R, Back: L R, LFE / Front: L C R, Side: L R, LFE
Sampling rate : 48.0 KHz
Bit depth : 24 bits
Compression mode : Lossless / Lossy
Title : DTS-HD MA 7.1 @ 5340 kbps
Language : English
Default : No
Forced : No
Text #1
ID : 6
Format : UTF-8
Codec ID : S_TEXT/UTF8
Codec ID/Info : UTF-8 Plain Text
Title : Forced
Language : Russian
Default : Yes
Forced : Yes
Text #2
ID : 7
Format : UTF-8
Codec ID : S_TEXT/UTF8
Codec ID/Info : UTF-8 Plain Text
Title : Full
Language : Russian
Default : No
Forced : No
Text #3
ID : 8
Format : UTF-8
Codec ID : S_TEXT/UTF8
Codec ID/Info : UTF-8 Plain Text
Title : Forced
Language : English
Default : No
Forced : No
Text #4
ID : 9
Format : UTF-8
Codec ID : S_TEXT/UTF8
Codec ID/Info : UTF-8 Plain Text
Title : Full
Language : English
Default : No
Forced : No
Text #5
ID : 10
Format : UTF-8
Codec ID : S_TEXT/UTF8
Codec ID/Info : UTF-8 Plain Text
Title : SDH
Language : English
Default : No
Forced : No
Text #6
ID : 11
Format : UTF-8
Codec ID : S_TEXT/UTF8
Codec ID/Info : UTF-8 Plain Text
Title : SDH-Colored
Language : English
Default : No
Forced : No
Menu
00:00:00.000 : en:
00:04:01.241 : en:
00:10:22.913 : en:
00:20:08.790 : en:
00:27:05.206 : en:
00:37:29.163 : en:
00:47:43.569 : en:
00:58:51.653 : en:
01:07:42.433 : en:
01:15:01.037 : en:
01:22:34.198 : en:
01:30:29.799 : en:
01:37:02.066 : en:
01:46:52.030 : en:
01:53:48.988 : en:
02:02:54.533 : en:

Скриншоты

[Цитировать]



Показать сообщения:    

Текущее время: 09-Дек 22:23

Часовой пояс: UTC + 3


Вы не можете начинать темы
Вы не можете отвечать на сообщения
Вы не можете редактировать свои сообщения
Вы не можете удалять свои сообщения
Вы не можете голосовать в опросах
Вы не можете прикреплять файлы к сообщениям
Вы не можете скачивать файлы

!ВНИМАНИЕ!
Сайт не предоставляет электронные версии произведений, а занимается лишь коллекционированием и каталогизацией ссылок, присылаемых и публикуемых на форуме нашими читателями. Если вы являетесь правообладателем какого-либо представленного материала и не желаете, чтобы ссылка на него находилась в нашем каталоге, свяжитесь с нами, и мы незамедлительно удалим ее. Файлы для обмена на трекере предоставлены пользователями сайта, и администрация не несет ответственности за их содержание. Просьба не заливать файлы, защищенные авторскими правами, а также файлы нелегального содержания!