[ Today is free to download without increasing Download ]

DL-List and Torrent activity
- Без обмана. Соки: добрые и злые (2013.06.10) SATRip - Режиссер / Телекомпания: ТВЦ
Русское название: Без обмана
Год выпуска: 2013
Жанр: Документальный, расследование
Потребление соков в России растет с каждым годом. Но мы покупаем, как правило, не соки, а сокосодержащую продукцию, то есть разбавленный концентрат, о чем производители предпочитают умалчивать. Какие соки полезны, а какие - абсолютно вредная гадость?
Автор: Илья Рендаков
Режиссёр: Алексей Ошин
Текст читает: Максим Пинскер
Продолжительность: ~ 00:39:16
Видеокодек: XVID
Битрейт видео: ~1500 kb/s
Размер кадра: 640 x 480
Качество видео: SATRip
Аудиокодек: MP3, 2ch.
Битрейт аудио: 128 kb/s


Формат : AVI
Формат/Информация : Audio Video Interleave
Размер файла : 462 Мбайт
Продолжительность : 39 м.
Общий поток : 1635 Кбит/сек
Программа кодирования : VirtualDubMod (build 2540/release)
Библиотека кодирования : VirtualDubMod build 2540/release
Идентификатор : 0
Формат : MPEG-4 Visual
Профиль формата : Advanced Simple@L5
Параметр BVOP формата : 2
Параметр QPel формата : Нет
Параметр GMC формата : Без точки перехода
Параметр матрицы формата : Default (MPEG)
Идентификатор кодека : XVID
Идентификатор кодека/Подсказка : XviD
Продолжительность : 39 м.
Битрейт : 1498 Кбит/сек
Ширина : 640 пикселей
Высота : 480 пикселей
Соотношение сторон : 4:3
Частота кадров : 25,000 кадров/сек
Цветовое пространство : YUV
Субдискретизация насыщенности : 4:2:0
Битовая глубина : 8 бит
Тип развёртки : Прогрессивная
Метод сжатия : С потерями
Бит/(Пиксели*Кадры) : 0.195
Размер потока : 423 Мбайт (92%)
Библиотека кодирования : XviD 64
Идентификатор : 1
Формат : MPEG Audio
Версия формата : Version 1
Профиль формата : Layer 3
Режим : Joint stereo
Расширение режима : MS Stereo
Идентификатор кодека : 55
Идентификатор кодека/Подсказка : MP3
Продолжительность : 39 м.
Вид битрейта : Постоянный
Битрейт : 128 Кбит/сек
Каналы : 2 канала
Частота : 48,0 КГц
Метод сжатия : С потерями
Размер потока : 36,1 Мбайт (8%)
Выравнивание : Соединение по промежуткам
Продолжительность промежутка : 40 мс. (1,00 видеокадр)
Время предзагрузки промежутка : 504 мс.
Библиотека кодирования : LAME3.90.3


Display posts:    

Current time is: 25-Oct 02:39

All times are UTC + 3

You cannot post new topics in this forum
You cannot reply to topics in this forum
You cannot edit your posts in this forum
You cannot delete your posts in this forum
You cannot vote in polls in this forum
You cannot attach files in this forum
You cannot download files in this forum

The site does not give electronic versions of products, and is engaged only in a collecting and cataloguing of the references sent and published at a forum by our readers. If you are the legal owner of any submitted material and do not wish that the reference to it was in our catalogue, contact us and we shall immediately remove her. Files for an exchange on tracker are given by users of a site, and the administration does not bear the responsibility for their maintenance. The request to not fill in the files protected by copyrights, and also files of the illegal maintenance!