[ Сегодня идет свободное скачивание без начисления Download ]


Статистика раздачи
Нет
 
   
 
Top  
 
 
Пули над Бродвеем / Bullets Over Broadway«Деньги решают всё...»
Год выпуска: 1994
Страна: США
Производство: Miramax Films
Жанр: драма, комедия
Режиссер: Вуди Аллен / Woody Allen
В ролях: Джон Кьюсак, Дайэнн Уист, Дженнифер Тилли, Чазз Пальминтери, Мэри-Луиз Паркер, Джек Уорден, Джо Витерелли, Роб Райнер, Трэйси Уллмэн, Джим Броудбент, Иди Фалко
Перевод: Профессиональный (многоголосый, закадровый)
Субтитры: Отсутствуют
Описание: Молодой и талантливый драматург написал пьесу, но денег на постановку, как всегда, не хватает. На помощь приходит известный гангстер из Нью-Йорка, предлагая деньги, но требуя поставить на главную роль свою бездарную подружку. Автор пьесы поставлен перед дилеммой: есть деньги и есть плохая актриса, нет актрисы — нет пьесы…

Качество: HDRip-AVC
Продолжительность: 01:38:43
Формат: MKV
Видео кодек: AVC
Аудио кодек: AC3
Видео: 1280 x 688 (1:86:0), 24.000 кадр/сек, AVC (х264), High@L4.1, ~ 2 855 Kbps, 0.135 bit/pixel
Аудио: 48 kHz, AC3 Dolby Digital, 2/0 (L,R) ch, ~192.00 kbps avg

Media Info

General
Unique ID                      : 189136220206011484664585118534722078277 (0x8E4A4F9E1BD4E8F995F86EEFBA7B4645)
Complete name                  : D:\фильмы\Puli.nad.Brodveem.1994.HDRip.AVC.mkv
Format                         : Matroska
Format version                 : Version 2
File size                      : 2.10 GiB
Duration                       : 1h 38mn
Overall bit rate               : 3 045 Kbps
Encoded date                   : UTC 2012-11-28 13:35:40
Writing application            : mkvmerge v4.9.1 ('Ich will') сборка от Aug 10 2011 09:31:20
Writing library                : libebml v1.2.1 + libmatroska v1.2.0
Video
ID                             : 1
Format                         : AVC
Format/Info                    : Advanced Video Codec
Format profile                 : High@L4.1
Format settings, CABAC         : Yes
Format settings, ReFrames      : 8 frames
Codec ID                       : V_MPEG4/ISO/AVC
Duration                       : 1h 38mn
Bit rate                       : 2 855 Kbps
Width                          : 1 280 pixels
Height                         : 688 pixels
Display aspect ratio           : 1.860
Frame rate                     : 24.000 fps
Color space                    : YUV
Chroma subsampling             : 4:2:0
Bit depth                      : 8 bits
Scan type                      : Progressive
Bits/(Pixel*Frame)             : 0.135
Stream size                    : 1.93 GiB (92%)
Writing library                : x264 core 116 r2074 2641b9e
Encoding settings              : cabac=1 / ref=8 / deblock=1:-1:-1 / analyse=0x3:0x133 / me=umh / subme=9 / psy=1 / psy_rd=1.00:0.10 / mixed_ref=1 / me_range=32 / chroma_me=1 / trellis=2 / 8x8dct=1 / cqm=0 / deadzone=21,11 / fast_pskip=0 / chroma_qp_offset=-3 / threads=12 / sliced_threads=0 / nr=0 / decimate=1 / interlaced=0 / bluray_compat=0 / constrained_intra=0 / bframes=7 / b_pyramid=2 / b_adapt=2 / b_bias=0 / direct=3 / weightb=1 / open_gop=0 / weightp=2 / keyint=250 / keyint_min=23 / scenecut=40 / intra_refresh=0 / rc_lookahead=50 / rc=2pass / mbtree=1 / bitrate=2855 / ratetol=1.0 / qcomp=0.60 / qpmin=0 / qpmax=69 / qpstep=4 / cplxblur=20.0 / qblur=0.5 / ip_ratio=1.40 / aq=1:1.00
Default                        : Yes
Forced                         : No
Audio
ID                             : 2
Format                         : AC-3
Format/Info                    : Audio Coding 3
Mode extension                 : CM (complete main)
Codec ID                       : A_AC3
Duration                       : 1h 38mn
Bit rate mode                  : Constant
Bit rate                       : 192 Kbps
Channel(s)                     : 2 channels
Channel positions              : Front: L R
Sampling rate                  : 48.0 KHz
Bit depth                      : 16 bits
Compression mode               : Lossy
Stream size                    : 136 MiB (6%)
Default                        : Yes
Forced                         : No

Скриншоты

[Цитировать]



Показать сообщения:    

Текущее время: 08-Дек 17:16

Часовой пояс: UTC + 3


Вы не можете начинать темы
Вы не можете отвечать на сообщения
Вы не можете редактировать свои сообщения
Вы не можете удалять свои сообщения
Вы не можете голосовать в опросах
Вы не можете прикреплять файлы к сообщениям
Вы не можете скачивать файлы

!ВНИМАНИЕ!
Сайт не предоставляет электронные версии произведений, а занимается лишь коллекционированием и каталогизацией ссылок, присылаемых и публикуемых на форуме нашими читателями. Если вы являетесь правообладателем какого-либо представленного материала и не желаете, чтобы ссылка на него находилась в нашем каталоге, свяжитесь с нами, и мы незамедлительно удалим ее. Файлы для обмена на трекере предоставлены пользователями сайта, и администрация не несет ответственности за их содержание. Просьба не заливать файлы, защищенные авторскими правами, а также файлы нелегального содержания!