[ Сегодня идет свободное скачивание без начисления Download ]


Статистика раздачи
Нет
 
   
 
Top  
 
 
-Охотник на убийц / Suspect Zero (2004) DVDRip- Русское название: Охотник на убийц
Оригинальное название: Suspect Zero
Год выпуска: 2004
Производство: США
Жанр: Фантастика, Триллер, Криминал
Описание фильма:
История расследования серии убийств, совершенных с особой жестокостью. В ходе следствия выясняется, что все жертвы маньяка — серийные убийцы, долгие годы разыскиваемые полицией.
Агент ФБР, ведущий дело, начинает испытывать симпатию к таинственному «мстителю», но это не мешает ему продолжать его поиск. Кроме того, у него возникают подозрения по поводу причастности к этим преступлениям своего коллеги…

Режиссер: Э. Елиас Мериге / E. Elias Merhige
Актеры: Бен Кингсли, Аарон Экхарт, Кэрри-Энн Мосс, Гарри Ленникс , Кевин Чэмберлин, Джулиан Рейес
Продолжительность: 01:30:29
Перевод: Многоголосый закадровый
Язык субтитров: Отсутствуют
Дата мировой премьеры: 27 августа 2004
Видеокодек: DivX 4/5/6
Битрейт видео: ~1962 kbps avg
Размер кадра: 704x400
Качество видео: DVDRip
Аудиокодек: AC3 2.0
Битрейт аудио: 192.00 kbps avg

MediaInfo

Общее
Полное имя : D:\Торренты на раздачу\Охотник на убийц\Suspect_Zero.avi
Формат : AVI
Формат/Информация : Audio Video Interleave
Размер файла : 1,37 Гбайт
Продолжительность : 1 ч. 30 м.
Общий поток : 2161 Кбит/сек
Программа кодирования : VirtualDubMod 1.5.4.1 (build 2178/release)
Библиотека кодирования : VirtualDubMod build 2178/release
Видео
Идентификатор : 0
Формат : MPEG-4 Visual
Параметр BVOP формата : 1
Параметр QPel формата : Нет
Параметр GMC формата : Без точки перехода
Параметр матрицы формата : Default (H.263)
Режим смешивания : Сжатый битовый поток
Идентификатор кодека : DX50
Идентификатор кодека/Подсказка : DivX 5
Продолжительность : 1 ч. 30 м.
Битрейт : 1962 Кбит/сек
Ширина : 704 пикселя
Высота : 400 пикселей
Соотношение сторон : 16:9
Частота кадров : 25,000 кадров/сек
Цветовое пространство : YUV
Субдискретизация насыщенности : 4:2:0
Битовая глубина : 8 бит
Тип развёртки : Прогрессивная
Метод сжатия : С потерями
Бит/(Пиксели*Кадры) : 0.279
Размер потока : 1,24 Гбайт (91%)
Библиотека кодирования : DivX 6.8.0 (UTC 2007-12-04)
Аудио
Идентификатор : 1
Формат : AC-3
Формат/Информация : Audio Coding 3
Расширение режима : CM (complete main)
Параметр Endianness формата : Big
Идентификатор кодека : 2000
Продолжительность : 1 ч. 30 м.
Вид битрейта : Постоянный
Битрейт : 192 Кбит/сек
Каналы : 2 канала
Расположение каналов : Front: L R
Частота : 48,0 КГц
Битовая глубина : 16 бит
Метод сжатия : С потерями
Размер потока : 124 Мбайт (9%)
Выравнивание : Разделение по промежуткам
Продолжительность промежутка : 96 мс. (2,40 видеокадра)
Время предзагрузки промежутка : 96 мс.
Язык : Russian
Скриншоты:
Время раздачи: ~ С 14:00 до 03:00 (10-15 скачавших)

[Цитировать]



Показать сообщения:    

Текущее время: 09-Дек 22:23

Часовой пояс: UTC + 3


Вы не можете начинать темы
Вы не можете отвечать на сообщения
Вы не можете редактировать свои сообщения
Вы не можете удалять свои сообщения
Вы не можете голосовать в опросах
Вы не можете прикреплять файлы к сообщениям
Вы не можете скачивать файлы

!ВНИМАНИЕ!
Сайт не предоставляет электронные версии произведений, а занимается лишь коллекционированием и каталогизацией ссылок, присылаемых и публикуемых на форуме нашими читателями. Если вы являетесь правообладателем какого-либо представленного материала и не желаете, чтобы ссылка на него находилась в нашем каталоге, свяжитесь с нами, и мы незамедлительно удалим ее. Файлы для обмена на трекере предоставлены пользователями сайта, и администрация не несет ответственности за их содержание. Просьба не заливать файлы, защищенные авторскими правами, а также файлы нелегального содержания!