[ Today is free to download without increasing Download ]

DL-List and Torrent activity
-Батарейка / The Battery (2012) WEB-DLRip- Русское название: Батарейка
Оригинальное название: The Battery
Производство: США / O. Hannah Films
Год выпуска: 2012
Жанр: Ужасы, Драма
Описание фильма:
Два друга бейсболиста пытаются выжить в безумном мире зомби, пытаясь отыскать таких же выживших.
Режиссер: Джереми Гарднер
Актеры: Джереми Гарднер, Нильс Болл, Алана О’Брайэн, Ларри Фесенден, Келли МакКвейд
Продолжительность: 01:40:27
Перевод: Любительский двуголосый
Озвучка / Автор перевода: DeadSno & den904
Субтитры: Отсутствуют

Дата мировой премьеры: 13 октября 2012
Видеокодек: Xvid
Битрейт видео: ~1867 Kbit/s
Размер кадра: 704 x 304
Качество видео: WEB-DLRip
Аудиокодек: MP3, 2.0
Битрейт аудио: 192 Kbit/s


Полное имя : D:\Торренты\Батарейка.2012.WEB-DLRip.avi
Формат : AVI
Формат/Информация : Audio Video Interleave
Размер файла : 1,45 Гбайт
Продолжительность : 1 ч. 40 м.
Общий поток : 2068 Кбит/сек
Программа кодирования : VirtualDubMod (build 2550/release)
Библиотека кодирования : VirtualDubMod build 2550/release
Идентификатор : 0
Формат : MPEG-4 Visual
Профиль формата : Advanced Simple@L5
Параметр BVOP формата : 1
Параметр QPel формата : Нет
Параметр GMC формата : Без точки перехода
Параметр матрицы формата : Выборочная
Идентификатор кодека : XVID
Идентификатор кодека/Подсказка : XviD
Продолжительность : 1 ч. 40 м.
Битрейт : 1867 Кбит/сек
Ширина : 704 пикс.
Высота : 304 пикс.
Соотношение сторон : 2,35:1
Частота кадров : 23,976 кадр/сек
Цветовое пространство : YUV
Подвыборка цветности : 4:2:0
Битовая глубина : 8 бит
Тип развёртки : Прогрессивная
Метод сжатия : С потерями
Бит/(Пиксели*Кадры) : 0.364
Размер потока : 1,31 Гбайт (90%)
Библиотека кодирования : XviD 73
Идентификатор : 1
Формат : MPEG Audio
Версия формата : Version 1
Профиль формата : Layer 3
Режим : Joint stereo
Идентификатор кодека : 55
Идентификатор кодека/Подсказка : MP3
Продолжительность : 1 ч. 40 м.
Вид битрейта : Постоянный
Битрейт : 192 Кбит/сек
Каналы : 2 канала
Частота : 48,0 КГц
Метод сжатия : С потерями
Размер потока : 138 Мбайт (9%)
Выравнивание : Соединение по промежуткам
Продолжительность промежутка : 42 мс. (1,00 видеокадр)
Время предзагрузки промежутка : 504 ms
Время раздачи: 24/7 по возможности


Display posts:    

Current time is: 22-Oct 19:11

All times are UTC + 3

You cannot post new topics in this forum
You cannot reply to topics in this forum
You cannot edit your posts in this forum
You cannot delete your posts in this forum
You cannot vote in polls in this forum
You cannot attach files in this forum
You cannot download files in this forum

The site does not give electronic versions of products, and is engaged only in a collecting and cataloguing of the references sent and published at a forum by our readers. If you are the legal owner of any submitted material and do not wish that the reference to it was in our catalogue, contact us and we shall immediately remove her. Files for an exchange on tracker are given by users of a site, and the administration does not bear the responsibility for their maintenance. The request to not fill in the files protected by copyrights, and also files of the illegal maintenance!