[ Сегодня идет свободное скачивание без начисления Download ]


Статистика раздачи
Нет
 
   
 
Top  
 
 
-Филадельфия / Philadelphia (1993) BDRip
«No one would take on his case... until one man was willing to take on the system.»
-- Русское название: Филадельфия
Оригинальное название: Philadelphia
Год выпуска: 1993
Страна: США | TriStar Pictures, Clinica Estetico Ltd.
Жанр: драма-Описание фильма:
Два главных героя не похожи как белое и черное — их разделяет цвет кожи, общественное положение, сексуальная ориентация, смертельная болезнь. Но каждый — служит закону и готов бороться против любой несправедливости. Том Хэнкс и Дэнзел Вашингтон в драматической истории смертельно больного, но не отчаявшегося человека. Человека, который верил в справедливость.-Режиссер: Джонатан Демме
Актеры: Том Хэнкс, Дензел Вашингтон, Антонио Бандерас, Джейсон Робардс, Мэри Стинберген, Джоэнн Вудворд, Чарльз Нэпьер, Роберт Риджли, Брэдли Уитфорд, Рон Вотер ...-Продолжительность: 02:05:27
Перевод: Дублированный
Язык субтитров: русские, английские
Вид субтитров: вшитые, отключаемые- -Дата мировой премьеры: 23 декабря 1993
Дата выхода DVD релиза: 4 июня 2013, «Columbia/Sony»
Видеокодек: MPEG-4 AVC/H.264
Битрейт видео: ~10439 kbps
Размер кадра: 1920*1032
Качество видео: BDRip 1080p [Blu-Ray от Blue Bird]
Аудио#1: 48 kHz, AC3 Dolby Digital, 2ch (L,R), ~192 kbps, русский (дублированный - ВидеоСервис)
Аудио#2: 48 kHz, AC3 , 1ch (С), ~192 kbps, украинский (MVO - Так треба Продакшн)
Аудио#3: 48.0 KHz, DTS Core: 5.1 (Front: L C R, Side: L R, LFE), ~1509 Kbps, английский
Аудио#4: 48 kHz, AC3 Dolby Digital, 2ch (L,R), ~192 kbps, русский (MVO - Первый канал)-

MediaInfo

General
Unique ID : 184440812547017463223789963172705241538 (0x8AC2022587540EC6A246004CD33889C2)
Complete name : :\\Philadelphia (1993).JP.BDRip.1080p.mkv
Format : Matroska
Format version : Version 2
File size : 12.8 GiB
Duration : 2h 5mn
Overall bit rate mode : Variable
Overall bit rate : 14.6 Mbps
Movie name : Philadelphia (1993) BDRip 1080p
Encoded date : UTC 2013-06-10 15:49:08
Writing application : mkvmerge v5.8.0 ('No Sleep / Pillow') built on Sep 2 2012 15:37:04
Writing library : libebml v1.2.3 + libmatroska v1.3.0
Video
ID : 1
Format : AVC
Format/Info : Advanced Video Codec
Format profile : [email protected]
Format settings, CABAC : Yes
Format settings, ReFrames : 5 frames
Muxing mode : Header stripping
Codec ID : V_MPEG4/ISO/AVC
Duration : 2h 5mn
Bit rate mode : Variable
Nominal bit rate : 10.4 Mbps
Maximum bit rate : 50.0 Mbps
Width : 1 920 pixels
Height : 1 032 pixels
Display aspect ratio : 1.85:1
Frame rate mode : Constant
Frame rate : 23.976 fps
Color space : YUV
Chroma subsampling : 4:2:0
Bit depth : 8 bits
Scan type : Progressive
Bits/(Pixel*Frame) : 0.220
Title : Philadelphia (1993) JP BDRip 1080p
Writing library : x264 core 125 r2208 d9d2288
Encoding settings : cabac=1 / ref=6 / deblock=1:0:0 / analyse=0x3:0x113 / me=esa / subme=9 / psy=0 / mixed_ref=1 / me_range=12 / chroma_me=1 / trellis=1 / 8x8dct=1 / cqm=0 / deadzone=21,11 / fast_pskip=1 / chroma_qp_offset=0 / threads=3 / lookahead_threads=1 / sliced_threads=0 / nr=0 / decimate=1 / interlaced=0 / bluray_compat=1 / constrained_intra=0 / bframes=3 / b_pyramid=1 / b_adapt=2 / b_bias=0 / direct=3 / weightb=1 / open_gop=0 / weightp=1 / keyint=200 / keyint_min=1 / scenecut=40 / intra_refresh=0 / rc_lookahead=50 / rc=2pass / mbtree=1 / bitrate=10439 / ratetol=1.0 / qcomp=0.60 / qpmin=0 / qpmax=69 / qpstep=4 / cplxblur=20.0 / qblur=0.5 / vbv_maxrate=50000 / vbv_bufsize=50000 / nal_hrd=vbr / ip_ratio=1.40 / aq=1:0.00
Default : Yes
Forced : No
Color primaries : Generic film
Matrix coefficients : RGB
Audio #1
ID : 2
Format : AC-3
Format/Info : Audio Coding 3
Format profile : Dolby Digital
Mode extension : CM (complete main)
Format settings, Endianness : Big
Muxing mode : Header stripping
Codec ID : A_AC3
Duration : 2h 5mn
Bit rate mode : Constant
Bit rate : 192 Kbps
Channel(s) : 2 channels
Channel positions : Front: L R
Sampling rate : 48.0 KHz
Bit depth : 16 bits
Compression mode : Lossy
Stream size : 172 MiB (1%)
Title : Russian (DUB - Видео Сервис)
Language : Russian
Default : Yes
Forced : Yes
Audio #2
ID : 3
Format : AC-3
Format/Info : Audio Coding 3
Mode extension : CM (complete main)
Format settings, Endianness : Big
Muxing mode : Header stripping
Codec ID : A_AC3
Duration : 2h 5mn
Bit rate mode : Constant
Bit rate : 192 Kbps
Channel(s) : 1 channel
Channel positions : Front: C
Sampling rate : 48.0 KHz
Bit depth : 16 bits
Compression mode : Lossy
Stream size : 172 MiB (1%)
Title : Ukrainian (MVO - Так треба Продакшн)
Language : Ukrainian
Default : No
Forced : No
Audio #3
ID : 4
Format : DTS
Format/Info : Digital Theater Systems
Format profile : MA / Core
Mode : 16
Format settings, Endianness : Big
Muxing mode : Header stripping
Codec ID : A_DTS
Duration : 2h 5mn
Bit rate mode : Variable
Bit rate : Unknown / 1 509 Kbps
Channel(s) : 6 channels
Channel positions : Front: L C R, Side: L R, LFE
Sampling rate : 48.0 KHz
Bit depth : 24 bits
Compression mode : Lossless / Lossy
Title : English
Language : English
Default : No
Forced : No
Audio #4
ID : 5
Format : AC-3
Format/Info : Audio Coding 3
Format profile : Dolby Digital
Mode extension : CM (complete main)
Format settings, Endianness : Big
Muxing mode : Header stripping
Codec ID : A_AC3
Duration : 2h 5mn
Bit rate mode : Constant
Bit rate : 192 Kbps
Channel(s) : 2 channels
Channel positions : Front: L R
Sampling rate : 48.0 KHz
Bit depth : 16 bits
Compression mode : Lossy
Stream size : 172 MiB (1%)
Title : Russian (MVO - Первый канал)
Language : Russian
Default : No
Forced : No
Text #1
ID : 6
Format : PGS
Muxing mode : zlib
Codec ID : S_HDMV/PGS
Codec ID/Info : The same subtitle format used on BDs/HD-DVDs
Language : Russian
Default : Yes
Forced : No
Text #2
ID : 7
Format : PGS
Muxing mode : zlib
Codec ID : S_HDMV/PGS
Codec ID/Info : The same subtitle format used on BDs/HD-DVDs
Language : English
Default : No
Forced : No
Menu
00:00:00.000 : ru:(01)
00:05:22.780 : ru:(02)
00:08:26.297 : ru:(03)
00:12:43.512 : ru:(04)
00:15:20.461 : ru:(05)
00:19:54.818 : ru:(06)
00:29:52.999 : ru:(07)
00:39:50.346 : ru:(08)
00:46:05.846 : ru:(09)
00:52:46.746 : ru:(10)
01:01:07.080 : ru:(11)
01:09:22.825 : ru:(12)
01:24:18.053 : ru:(13)
01:39:21.288 : ru:(14)
01:43:59.775 : ru:(15)
01:47:53.091 : ru:(16)
Время раздачи: 24/7 до 3-х скачавших

[Цитировать]



Показать сообщения:    

Текущее время: 04-Дек 09:11

Часовой пояс: UTC + 3


Вы не можете начинать темы
Вы не можете отвечать на сообщения
Вы не можете редактировать свои сообщения
Вы не можете удалять свои сообщения
Вы не можете голосовать в опросах
Вы не можете прикреплять файлы к сообщениям
Вы не можете скачивать файлы

!ВНИМАНИЕ!
Сайт не предоставляет электронные версии произведений, а занимается лишь коллекционированием и каталогизацией ссылок, присылаемых и публикуемых на форуме нашими читателями. Если вы являетесь правообладателем какого-либо представленного материала и не желаете, чтобы ссылка на него находилась в нашем каталоге, свяжитесь с нами, и мы незамедлительно удалим ее. Файлы для обмена на трекере предоставлены пользователями сайта, и администрация не несет ответственности за их содержание. Просьба не заливать файлы, защищенные авторскими правами, а также файлы нелегального содержания!