[ Сегодня идет свободное скачивание без начисления Download ]


Статистика раздачи
Нет
 
   
 
Top  
 
 
-Рай океана / Haiyang tiantang (2010) BDRip
«Explore true love and affections from the angle of ordinary people»
-- Русское название: Рай океана
Оригинальное название: Haiyang tiantang
Год выпуска: 2010
Страна: Китай
Жанр: драма-Описание фильма:
Главный герой узнает, что неизлечимо болен раком. Его сын — беспомощный аутист. И умирающий отец должен успеть как-то устроить его жизнь до своего ухода туда, откуда не возвращаются…-Режиссер: Сюэ Сяолу
Актеры: Джет Ли, Ран Чен, Чжан Вэнь, Луньмэй Квай, Юаньюань Жу, Гао Юаньюань, Йонг Донг, Юн Мэй, Чуньхай Ли, Бо Рун ...
Продолжительность: 01:37:07
Перевод: Авторский (одноголосый, закадровый) [Юрий Сербин]
Язык субтитров: русские
Вид субтитров: вшитые, отключаемые

Дата мировой премьеры: 18 июня 2010
Видеокодек: MPEG-4 AVC/H.264
Битрейт видео: ~4919 Kbps
Размер кадра: 1280*692
Качество видео: BDRip 720p
Аудиокодек: AC3 5.1
Аудио #1: 640 Kbps, русский
Аудио #2: 640 Kbps, китайский
Главы сохранены

MediaInfo:

General
Unique ID                                : 174759952324193922893222942159613810114 (0x83798AE2FD50A442849BCAE93A5155C2)
Complete name                            : :\\Ocean.Heaven.2010.BDRip.720p.mkv
Format                                   : Matroska
Format version                           : Version 2
File size                                : 4.20 GiB
Duration                                 : 1h 37mn
Overall bit rate                         : 6 191 Kbps
Encoded date                             : UTC 2012-04-26 18:06:56
Writing application                      : mkvmerge v5.2.0 ('I can't explain') built on Dec 18 2011 18:12:03
Writing library                          : libebml v1.2.3 + libmatroska v1.3.0
Video
ID                                       : 1
Format                                   : AVC
Format/Info                              : Advanced Video Codec
Format profile                           : [url=mailto:[email protected]][email protected][/url]
Format settings, CABAC                   : Yes
Format settings, ReFrames                : 8 frames
Codec ID                                 : V_MPEG4/ISO/AVC
Duration                                 : 1h 37mn
Bit rate                                 : 4 919 Kbps
Width                                    : 1 280 pixels
Height                                   : 692 pixels
Display aspect ratio                     : 1.85:1
Frame rate mode                          : Constant
Frame rate                               : 23.976 fps
Color space                              : YUV
Chroma subsampling                       : 4:2:0
Bit depth                                : 8 bits
Scan type                                : Progressive
Bits/(Pixel*Frame)                       : 0.232
Stream size                              : 3.25 GiB (77%)
Writing library                          : x264 core 98 r1649 c54c47d
Encoding settings                        : cabac=1 / ref=8 / deblock=1:-3:-3 / analyse=0x3:0x113 / me=umh / subme=9 / psy=1 / psy_rd=1.10:0.00 / mixed_ref=1 / me_range=32 / chroma_me=1 / trellis=2 / 8x8dct=1 / cqm=0 / deadzone=21,11 / fast_pskip=0 / chroma_qp_offset=-4 / threads=12 / sliced_threads=0 / nr=0 / decimate=0 / interlaced=0 / constrained_intra=0 / bframes=8 / b_pyramid=2 / b_adapt=2 / b_bias=0 / direct=3 / weightb=1 / weightp=2 / keyint=250 / keyint_min=25 / scenecut=40 / intra_refresh=0 / rc_lookahead=48 / rc=2pass / mbtree=1 / bitrate=4919 / ratetol=1.0 / qcomp=0.60 / qpmin=10 / qpmax=51 / qpstep=4 / cplxblur=20.0 / qblur=0.5 / ip_ratio=1.40 / aq=1:0.80
Language                                 : English
Default                                  : Yes
Forced                                   : No
Audio #1
ID                                       : 2
Format                                   : AC-3
Format/Info                              : Audio Coding 3
Mode extension                           : CM (complete main)
Format settings, Endianness              : Big
Muxing mode                              : Header stripping
Codec ID                                 : A_AC3
Duration                                 : 1h 37mn
Bit rate mode                            : Constant
Bit rate                                 : 640 Kbps
Channel(s)                               : 6 channels
Channel positions                        : Front: L C R, Side: L R, LFE
Sampling rate                            : 48.0 KHz
Bit depth                                : 16 bits
Compression mode                         : Lossy
Stream size                              : 445 MiB (10%)
Title                                    : Ю.Сербин
Language                                 : Russian
Default                                  : Yes
Forced                                   : No
Audio #2
ID                                       : 3
Format                                   : AC-3
Format/Info                              : Audio Coding 3
Mode extension                           : CM (complete main)
Format settings, Endianness              : Big
Muxing mode                              : Header stripping
Codec ID                                 : A_AC3
Duration                                 : 1h 37mn
Bit rate mode                            : Constant
Bit rate                                 : 640 Kbps
Channel(s)                               : 6 channels
Channel positions                        : Front: L C R, Side: L R, LFE
Sampling rate                            : 48.0 KHz
Bit depth                                : 16 bits
Compression mode                         : Lossy
Stream size                              : 445 MiB (10%)
Language                                 : Chinese
Default                                  : No
Forced                                   : No
Text
ID                                       : 4
Format                                   : UTF-8
Codec ID                                 : S_TEXT/UTF8
Codec ID/Info                            : UTF-8 Plain Text
Language                                 : Russian
Default                                  : No
Forced                                   : No
Menu
00:00:00.000                             : en:00:00:00.000
00:03:29.125                             : en:00:03:29.125
00:10:47.897                             : en:00:10:47.897
00:16:10.677                             : en:00:16:10.677
00:24:21.417                             : en:00:24:21.417
00:30:05.428                             : en:00:30:05.428
00:35:09.398                             : en:00:35:09.398
00:42:28.545                             : en:00:42:28.545
00:47:30.222                             : en:00:47:30.222
00:54:53.623                             : en:00:54:53.623
01:00:52.356                             : en:01:00:52.356
01:07:15.989                             : en:01:07:15.989
01:12:42.399                             : en:01:12:42.399
01:18:51.268                             : en:01:18:51.268
01:26:19.841                             : en:01:26:19.841
01:33:21.511                             : en:01:33:21.511
Скриншоты: Время раздачи: 24/7 до 3-х скачавших

[Цитировать]



Показать сообщения:    

Текущее время: 05-Дек 23:43

Часовой пояс: UTC + 3


Вы не можете начинать темы
Вы не можете отвечать на сообщения
Вы не можете редактировать свои сообщения
Вы не можете удалять свои сообщения
Вы не можете голосовать в опросах
Вы не можете прикреплять файлы к сообщениям
Вы не можете скачивать файлы

!ВНИМАНИЕ!
Сайт не предоставляет электронные версии произведений, а занимается лишь коллекционированием и каталогизацией ссылок, присылаемых и публикуемых на форуме нашими читателями. Если вы являетесь правообладателем какого-либо представленного материала и не желаете, чтобы ссылка на него находилась в нашем каталоге, свяжитесь с нами, и мы незамедлительно удалим ее. Файлы для обмена на трекере предоставлены пользователями сайта, и администрация не несет ответственности за их содержание. Просьба не заливать файлы, защищенные авторскими правами, а также файлы нелегального содержания!