[ Сегодня идет свободное скачивание без начисления Download ]


Статистика раздачи
Нет
 
   
 
Top  
 
 
-Мертвые шахты / Dead Mine (2012) BDRip- Русское название: Мертвые шахты
Оригинальное название: Dead Mine
Производство: Infinite Frameworks Studios / Индонезия
Год выпуска: 2012
Жанр: Ужасы, Боевик-Описание фильма:
Легенда о Золоте Ямашиты соблазняет охотника за сокровищами Воррена Прайса отправиться вместе со своей группой глубоко в индонезийские джунгли. Оказавшись в ловушке заброшенного японского бункера времен Второй мировой войны, искатели приключений сразу же сталкиваются с его ужасными обитателями, и теперь их единственная надежда на спасене — шаг за шагом двигаться дальше.-Режиссер: Стивен Шейл
Актеры: Арио Баю, Андре, Асеп, Буди, Чарли, Рустам Эффенди, Хасан, Сэм Хэзелдайн-Сценарий: Зиад Семаан, Стивен Шейл
Продюсер: Катрин Девила, Дэниэл Девила, Ник Норт
Оператор: Джон Радель
Композитор: Чарли Моулх-Продолжительность: 01:31:28
Перевод: Любительский (одноголосый закадровый) Хихикающий доктор по субтитрам KateBCN
Язык субтитров: Отсутствует- -Видеокодек: MPEG-4 AVC/H.264
Битрейт видео: ~10.6 Мбит/с
Размер кадра: 1920x816p
Качество видео: BDRip 1080p-Аудио 1: Русский DTS, 6 ch, 1509 Кбит/с
Аудио 2: Английский DTS, 6 ch, 1509 Кбит/с
-

MediaInfo:

General
Complete name : O:\Dead.Mine.2012.BDRip.(1080p).mkv
Format : Matroska
File size : 8.88 GiB
Duration : 1h 31mn
Overall bit rate : 13.9 Mbps
Encoded date : UTC 2013-05-11 16:47:55
Writing application : mkvmerge v6.1.0 ('Old Devil') built on Mar 4 2013 09:10:42
Writing library : libebml v1.3.0 + libmatroska v1.4.0
Video
ID : 1
Format : AVC
Format/Info : Advanced Video Codec
Format profile : [email protected]
Format settings, CABAC : Yes
Format settings, ReFrames : 5 frames
Muxing mode : Container [email protected]
Codec ID : V_MPEG4/ISO/AVC
Duration : 1h 31mn
Bit rate : 10.6 Mbps
Nominal bit rate : 10.9 Mbps
Width : 1 920 pixels
Height : 816 pixels
Display aspect ratio : 2.35:1
Frame rate : 23.976 fps
Resolution : 8 bits
Colorimetry : 4:2:0
Scan type : Progressive
Bits/(Pixel*Frame) : 0.282
Stream size : 6.77 GiB (76%)
Writing library : x264 core 128 r2216 198a7ea
Encoding settings : cabac=1 / ref=5 / deblock=1:-3:-3 / analyse=0x3:0x133 / me=umh / subme=10 / psy=1 / psy_rd=1.00:0.00 / mixed_ref=1 / me_range=48 / chroma_me=1 / trellis=2 / 8x8dct=1 / cqm=0 / deadzone=21,11 / fast_pskip=1 / chroma_qp_offset=-2 / threads=12 / lookahead_threads=2 / sliced_threads=0 / nr=0 / decimate=0 / interlaced=0 / bluray_compat=0 / constrained_intra=0 / bframes=7 / b_pyramid=2 / b_adapt=2 / b_bias=0 / direct=3 / weightb=1 / open_gop=0 / weightp=2 / keyint=250 / keyint_min=23 / scenecut=40 / intra_refresh=0 / rc_lookahead=80 / rc=2pass / mbtree=1 / bitrate=10935 / ratetol=1.0 / qcomp=0.60 / qpmin=0 / qpmax=69 / qpstep=4 / cplxblur=20.0 / qblur=0.5 / vbv_maxrate=30000 / vbv_bufsize=30000 / nal_hrd=none / ip_ratio=1.20 / aq=1:1.00
Audio #1
ID : 2
Format : DTS
Format/Info : Digital Theater Systems
Codec ID : A_DTS
Duration : 1h 31mn
Bit rate mode : Constant
Bit rate : 1 510 Kbps
Channel(s) : 6 channels
Channel positions : Front: L C R, Surround: L R, LFE
Sampling rate : 48.0 KHz
Resolution : 24 bits
Stream size : 988 MiB (11%)
Language : Russian
Audio #2
ID : 3
Format : DTS
Format/Info : Digital Theater Systems
Codec ID : A_DTS
Duration : 1h 31mn
Bit rate mode : Constant
Bit rate : 1 510 Kbps
Channel(s) : 6 channels
Channel positions : Front: L C R, Surround: L R, LFE
Sampling rate : 48.0 KHz
Resolution : 24 bits
Stream size : 988 MiB (11%)
-Скриншоты:
Время раздачи: 24/7 - круглосуточно

[Цитировать]



Показать сообщения:    

Текущее время: 06-Дек 22:49

Часовой пояс: UTC + 3


Вы не можете начинать темы
Вы не можете отвечать на сообщения
Вы не можете редактировать свои сообщения
Вы не можете удалять свои сообщения
Вы не можете голосовать в опросах
Вы не можете прикреплять файлы к сообщениям
Вы не можете скачивать файлы

!ВНИМАНИЕ!
Сайт не предоставляет электронные версии произведений, а занимается лишь коллекционированием и каталогизацией ссылок, присылаемых и публикуемых на форуме нашими читателями. Если вы являетесь правообладателем какого-либо представленного материала и не желаете, чтобы ссылка на него находилась в нашем каталоге, свяжитесь с нами, и мы незамедлительно удалим ее. Файлы для обмена на трекере предоставлены пользователями сайта, и администрация не несет ответственности за их содержание. Просьба не заливать файлы, защищенные авторскими правами, а также файлы нелегального содержания!