[ Сегодня идет свободное скачивание без начисления Download ]


Статистика раздачи
Нет
 
   
 
Top  
 
 
- Мстители: Величайшие герои ЗемлиThe Avengers: Earth's Mightiest HeroesСезон 2 Серии 18 из 26Год выпуска: 2012
Страна: США
Жанр: мультфильм, фантастика, боевик, семейный
Перевод: Дублированный - Пифагор
Оригинальная дорожка: есть
Режиссер: Фрэнк Пор, Сайро Нили, Винтон Хёк, Себастьян Монтес, Бойд Керклэнд, Рой Бурдин, Стивен Е. Гордон, Гари Хартл
Персонажи: Человек муравей, оса, халк, железный человек, тор и др.
Роли озвучивали: Эрик Лумис, Брайан Блум, Коллин О’Шонесси, Рик Д. Вассерман, Крис Кокс, Фред Татаскьор, Джеймс С. Мэтис III, Уолли Вингерт, Фил ЛаМарр, Алекс Десерт и др.
Роли дублировали: Константин Карасик, Алексей Мясников, Жанна Никонова, Юрий Деркач, Илья Хвостиков и др.
Описание: Неизвестная сила наносит удар по четырем тюрьмам для сверхлюдей, и десятки опаснейших суперзлодеев вырываются на свободу. Самые могучие супергерои объединяются в альянс под названием Мстители, чтобы вернуть вырвавшееся на свободу зло за решетку…
-Премьера в мире: 2 апреля 2012
Релиз на DVD: 14 мая 2013
Продолжительность: 00:20:00 x 18 серии
Качество: WEB-DL 720p
Формат: MKV
Видео кодек: h264
Аудио кодек: AC3
Размер кадра: 1280x720, 23.976 fps, ~4Mbps, 0.169 bit/pixel
Аудио 1: Dolby AC3 48000Hz stereo 192Kbps - Дублированный - Пифагор
Аудио 2: Dolby AC3 48000Hz 6ch 384Kbps - Оригинальная дорожка-

Список серий:

01. Личная Война Доктора Дума / The Private War of Doctor Doom
02. Один-на-один против Аима / Alone Against A.I.M.
03. Акт Возмездия / Acts of Vengeance
04. Добро Пожаловать в Империю Кри / Welcome to the Kree Empire
05. Украсть Человека-Муравья / To Steal an Ant-Man
06. Майкл Корвак / Michael Korvac
07. А кому ты доверяешь? / Who Do You Trust?
08. Баллада о Бета Рэй Билле / The Ballad of Beta Ray Bill
09. Красный Кошмар / Nightmare in Red
10. Военнопленный / Prisoner of War
11. Проникновение / Infiltration
12. Секретное Вторжение / Secret Invasion
13. А вот и Паук... / Along Came a Spider...
14. Смотрите... Вижан! / Behold... The Vision!
15. Обессиленные / Powerless
16. Нападение на Зону 42 / Assault On 42
17. Безграничный Альтрон / Ultron Unlimited
18. Жёлтый Жакет / Yellowjacket
-

MediaInfo

General
Unique ID : 243915027852821321067900819125817025451 (0xB780535AB4298C08AA8A89C60BFFA3AB)
Complete name : \The Avengers. Earths Mightiest Heroes. 2 season (WEB-DL l 720p)\02. Alone Against A.I.M.mkv
Format : Matroska
Format version : Version 1
File size : 711 MiB
Duration : 22mn 36s
Overall bit rate : 4 399 Kbps
Encoded date : UTC 2013-04-29 14:14:08
Writing application : mkvmerge v2.3.0 ('Freak U') built on Sep 8 2008 18:32:16
Writing library : libebml v0.7.7 + libmatroska v0.8.1
Video
ID : 1
Format : AVC
Format/Info : Advanced Video Codec
Format profile : High@L3.1
Format settings, CABAC : No
Format settings, ReFrames : 2 frames
Format settings, GOP : N=1
Codec ID : V_MPEG4/ISO/AVC
Duration : 22mn 36s
Bit rate : 3 735 Kbps
Width : 1 280 pixels
Height : 720 pixels
Display aspect ratio : 16:9
Frame rate mode : Constant
Frame rate : 23.976 fps
Color space : YUV
Chroma subsampling : 4:2:0
Bit depth : 8 bits
Scan type : Progressive
Bits/(Pixel*Frame) : 0.169
Stream size : 604 MiB (85%)
Language : English
Default : Yes
Forced : No
Color primaries : BT.709
Transfer characteristics : BT.709
Matrix coefficients : BT.709
Audio #1
ID : 2
Format : AC-3
Format/Info : Audio Coding 3
Mode extension : CM (complete main)
Format settings, Endianness : Big
Codec ID : A_AC3
Duration : 22mn 36s
Bit rate mode : Constant
Bit rate : 192 Kbps
Channel(s) : 2 channels
Channel positions : Front: L R
Sampling rate : 48.0 KHz
Bit depth : 16 bits
Compression mode : Lossy
Stream size : 31.0 MiB (4%)
Language : Russian
Default : Yes
Forced : No
Audio #2
ID : 3
Format : AC-3
Format/Info : Audio Coding 3
Mode extension : CM (complete main)
Format settings, Endianness : Big
Codec ID : A_AC3
Duration : 22mn 36s
Bit rate mode : Constant
Bit rate : 384 Kbps
Channel(s) : 6 channels
Channel positions : Front: L C R, Side: L R, LFE
Sampling rate : 48.0 KHz
Bit depth : 16 bits
Compression mode : Lossy
Stream size : 62.1 MiB (9%)
Language : English
Default : No
Forced : No
-

Внимание! Раздача ведётся путём добавления новых серий!

Внимание! Раздача ведётся путём добавления новых серий; при каждом добавлении создётся новый торрент. Чтобы начать докачку новой серии, пользователям необходимо сделать следующее:
(1) остановить скачивание,
(2) удалить старый торрент у себя из клиента (старые серии удалять не надо),
(3) скачать новый торрент и запустить его у себя в клиенте вместо старого, при этом указать клиенту путь в старую папку куда и должно происходить скачивание новых серий.
Ваш клиент при этом должен произвести хеширование (проверку) старой папки (если не производит сам - помогите ему сделать это), и будет докачивать только те серии которых у вас ещё нет. Старые серии при этом не удаляются, а продолжают раздаваться!
Eсли вы уже удалили старые серии, то предотвратить повторную закачку старых серий можно, отжав галочку в соответсвующих местах при запуске нового торрента.
-Скриншоты-

[Цитировать]

Топик был перенесен из форума Другие мультсериалы в форум Зарубежные мультфильмы
Prizr@k



Показать сообщения:    

Текущее время: 11-Дек 03:21

Часовой пояс: UTC + 3


Вы не можете начинать темы
Вы не можете отвечать на сообщения
Вы не можете редактировать свои сообщения
Вы не можете удалять свои сообщения
Вы не можете голосовать в опросах
Вы не можете прикреплять файлы к сообщениям
Вы не можете скачивать файлы

!ВНИМАНИЕ!
Сайт не предоставляет электронные версии произведений, а занимается лишь коллекционированием и каталогизацией ссылок, присылаемых и публикуемых на форуме нашими читателями. Если вы являетесь правообладателем какого-либо представленного материала и не желаете, чтобы ссылка на него находилась в нашем каталоге, свяжитесь с нами, и мы незамедлительно удалим ее. Файлы для обмена на трекере предоставлены пользователями сайта, и администрация не несет ответственности за их содержание. Просьба не заливать файлы, защищенные авторскими правами, а также файлы нелегального содержания!