[ Сегодня идет свободное скачивание без начисления Download ]


Статистика раздачи
Нет
 
   
 
Top  
 
 
-Железный Человек: Приключения в броне (Сезон 2 Серии 01-14 из 26) / Iron Man: Armored Adventures (2011) WEB-DLRip [Обновляемая]- Год выпуска: 2011
Cтрана: Канада, Франция, Великобритания
Производство: Centre National de la Cin?matographie (CNC), France 2 (FR 2)
Жанр: Приключения, Детский, Рисованная анимация
Режиссер: Филипп Гуинне, Стефан Жаффе
Персонажи: Тони Старк, Говард Старк, Обадайи Стэйна, Джеймс (Роди) Роудс, Пеппер Поттс
Перевод: Многоголосый закадровый
Субтитры: Отсутствуют
Описание: Когда его отец, крупный промышленник Говард Старк, погибает в авиакатастрофе сразу после отказа в военной модернизации Земляных Буров по воле Обадайи Стэйна, 16-летний гений Тони Старк использует высокотехнологичный костюм из брони, который он создал сам, и начинает расследование возможной причастности Обадайи Стэйна к смерти своего отца. Получив известность как "Железный человек", Тони действует с целью разрушить планы Обадайи Стэйна, а также спасти мир от других злодеев, таких как Мандарин, Мистер Фикс, Хлыст, Мадам Маска, Красный Динамо и др. В этой борьбе с беззаконием ему помогают Джеймс (Роди) Роудс и Пеппер Поттс. Активные действия Тони как Железного Человека обычно заканчиваются его оправданиями, почему он постоянно опаздывает в школу или совсем пропускает учёбу. Теперь, основываясь на феноменальной технологии выживания, Тони должен балансировать на грани между заботами подростковой жизни и долгом чести супер-героя. Облачённый в броню своего замечательного изобретения, Тони будто создан для сверхскоростных полётов, высокотехнологичных сражений и самых опасных приключений.

Качество видео: WEB-DLRip
Продолжительность: ~00:22:00
Формат: AVI
Видеокодек: Xvid
Битрейт видео: ~1300Kbps
Размер кадра: 720x400
Аудиокодек: MP3
Битрейт аудио: 192Kbps
Аудио 1: MP3 48000Hz stereo 192Kbps, Русский (Ivnet Cinema)
Аудио 2: MP3 48000Hz stereo 128Kbps, Английский (Original)
Релиз группы:

Список серий

01 - "The Invincible Iron Man Part 1: Disassembled" - "Непобедимый Железный Человек. Часть 1: Крах"
После многомесячного перерыва Тони снова вынужден стать Непобедимым Железным Человеком, когда тайный босс Мистера Фикса заказывает похищение Джастина Хаммера и Обадайи Стэйна.
02 - "The Invincible Iron Man Part 2: Reborn" - "Непобедимый Железный Человек. Часть 2: Возрождение"
В тот момент, когда Тони ранен, а компании его отца грозит опасность, Железный Человек вынужден одеть свою новую Броню Номер Два и плечом к плечу с Боевой Машиной драться с объединёнными силами Бурана, Хлыста и Мистера Фикса, нанятых загадочным боссом.
03 - "Look Into the Light" - "Путь к свету"
В попытке заново материализовать Живого Лазера, Мистер Фикс разделяет его надвое - одна половина ищет помощи у Железного Человека, а другая угрожает всей Земле.
04 - "Ghost In The Machine" - "Призрак в системе"
Обадайя Стэйн нанимает Призрака, чтобы тот помог ему заполучить броню Железного Человека.
05 - "Armor Wars" - "Битва броней"
Обадайя Стэйн использует украденные у Тони чертежи для массового производства супергеройских костюмов. Железному Человеку остаётся только одно - дискредитировать детища Стэйна в глазах жителей города.
06 - "Line of Fire" - "Линия огня"
Расследуя серию атак на Хаммер Мультинэшнл, Тони выясняет, что Старк Интэрнэшнл причастен к гражданской войне.
07 - "Titanium Vs. Iron" - "Титан против Железа"
Новое детище Хаммера сильно повреждает Боевую Машину, а броню Железного Человека разрушает.
08 - "Might of Doom" - "Магия Дума"
Доктор Дум приезжает в Нью-Йорк, чтобы забрать украденные чертежи Железного Человека. Тони должен во что бы то ни стало помешать ему.
09 - "The Hawk and the Spider" - "Сокол и Паук"
Железный Человек пытается остановить Соколиного Глаза и Чёрную Вдову, когда те крадут чип интерфейса из Старк Интэрнэшнл. Ситуация усложняется, когда чип попадает в руки Титанового Человека.
10 - "Enter: Iron Monger" - "Явление Железного Дельца"
Стэйн завершает создание Железного Дельца, так что Тони и Роуди приходится биться с ним не на жизнь, а на смерть.
11 - "Fugitive of S.H.I.E.L.D." - "Беглец из Щ.И.Т.а"
Ник Фьюри обращается за помощью к Железному Человеку после похищения с вертоносца Щ.И.Т.а секретных данных, но коварная Чёрная Вдова подставляет Железного Человека и тем самым делает его врагом Ника Фьюри и его организации.
12 - "All the best people are mad" - "Все лучшие люди безумны"
Движимая завистью, Рона превращает Академию Будущего в смертельный лабиринт для Тони и его одноклассников, а её брат-близнец Энди раскрывает свою опасную сущность.
13 - "Heavy Mettle" - "Тяжёлый нрав"
Когда Стэйна увольняют из Старк Интэрнэшнл, он узнаёт, кто на самом деле Железный Человек. Похитив Железного Дельца, Стэйн хочет покончить с Железным Человеком и затевает битву, в которую тайно вмешивается Титановый Человек.
14 - "Mandarin's Quest" - "Путь Мандарина"
Мандарин возвращается и просит помощи Тони, чтобы добыть восьмое Маклуанское кольцо. Тони отказывается, но когда Мандарин обещает помочь раскрыть правду о судьбе отца Тони, соглашается.

Техническая информация MediaInfo:


General
Format : AVI
Format/Info : Audio Video Interleave
File size : 281 MiB
Duration : 24mn 0s
Overall bit rate : 1 636 Kbps
Movie name : Iron Man: Armored Adventures - s02e01 - The Invincible Iron Man Part 1: Disassembled
Writing application : VirtualDubMod 1.5.10.2 (build 2542/release)
Writing library : VirtualDubMod build 2542/release
Video #0
ID : 0
Format : MPEG-4 Visual
Format profile : Advanced [email protected]
Format settings, BVOP : Yes
Format settings, QPel : No
Format settings, GMC : No warppoints
Format settings, Matrix : Custom
Codec ID : XVID
Codec ID/Hint : XviD
Duration : 24mn 0s
Bit rate : 1 298 Kbps
Width : 720 pixels
Height : 400 pixels
Display aspect ratio : 16:9
Frame rate : 30.000 fps
Resolution : 8 bits
Colorimetry : 4:2:0
Scan type : Progressive
Bits/(Pixel*Frame) : 0.150
Stream size : 223 MiB (79%)
Writing library : XviD 1.2.1 (UTC 2008-12-04)
Audio #1
ID : 1
Format : MPEG Audio
Format version : Version 1
Format profile : Layer 3
Format_Settings_Mode : Joint stereo
Format_Settings_ModeExtension : MS Stereo
Codec ID : 55
Codec ID/Hint : MP3
Duration : 24mn 0s
Bit rate mode : Constant
Bit rate : 192 Kbps
Channel(s) : 2 channels
Sampling rate : 48.0 KHz
Stream size : 33.0 MiB (12%)
Alignment : Split accross interleaves
Interleave, duration : 33 ms (1.00 video frame)
Interleave, preload duration : 500 ms
Title : Russian [Ivnet Cinema]
Writing library : LAME3.98r
Audio #2
ID : 2
Format : MPEG Audio
Format version : Version 1
Format profile : Layer 3
Format_Settings_Mode : Joint stereo
Format_Settings_ModeExtension : MS Stereo
Codec ID : 55
Codec ID/Hint : MP3
Duration : 23mn 59s
Bit rate mode : Constant
Bit rate : 128 Kbps
Channel(s) : 2 channels
Sampling rate : 48.0 KHz
Stream size : 22.0 MiB (8%)
Alignment : Aligned on interleaves
Interleave, duration : 33 ms (1.00 video frame)
Interleave, preload duration : 504 ms
Title : English [Original]
Writing library : LAME3.98r
Скриншоты:
Внимание! Раздача ведётся путём добавления новых серий
Добавлена 14-ая серия 12.02.2013
Время раздачи: 24/7 - круглосуточно

[Цитировать]



Показать сообщения:    

Текущее время: 06-Дек 06:00

Часовой пояс: UTC + 3


Вы не можете начинать темы
Вы не можете отвечать на сообщения
Вы не можете редактировать свои сообщения
Вы не можете удалять свои сообщения
Вы не можете голосовать в опросах
Вы не можете прикреплять файлы к сообщениям
Вы не можете скачивать файлы

!ВНИМАНИЕ!
Сайт не предоставляет электронные версии произведений, а занимается лишь коллекционированием и каталогизацией ссылок, присылаемых и публикуемых на форуме нашими читателями. Если вы являетесь правообладателем какого-либо представленного материала и не желаете, чтобы ссылка на него находилась в нашем каталоге, свяжитесь с нами, и мы незамедлительно удалим ее. Файлы для обмена на трекере предоставлены пользователями сайта, и администрация не несет ответственности за их содержание. Просьба не заливать файлы, защищенные авторскими правами, а также файлы нелегального содержания!