[ Сегодня идет свободное скачивание без начисления Download ]


Статистика раздачи
Нет
 
   
 
Top  
 
 
Начало / Inception «Твой разум - место преступления.»
Страна: США, Великобритания
Жанр: фантастика, боевик, триллер, драма, детектив
Год выпуска: 2010
Продолжительность: 02:28:07-Перевод #1: Профессиональный (дублированный) Blu-ray CEE
Перевод #2: Профессиональный (двухголосый закадровый) Кубик в Кубе
Перевод #3: Профессиональный (двухголосый закадровый) BBC Saint-Petersburg
Перевод #4: Авторский (одноголосый закадровый) А. Гаврилов
Перевод #5: Авторский (одноголосый закадровый) Ю. Сербин
Cубтитры: Russian BD (Forced, Full), Russian Voronine (Forced, Full, SDH), English (Full, SDH)
Оригинальная аудиодорожка: English-Режиссер: Кристофер Нолан / Christopher Nolan
В ролях: Леонардо ДиКаприо, Джозеф Гордон-Левитт, Эллен Пейдж, Том Харди, Кен Ватанабе, Дилип Рао, Киллиан Мёрфи, Том Беренджер, Марион Котийяр, Пит Постлетуэйт, Майкл Кейн-Описание: Кобб - талантливый вор, лучший из лучших в опасном искусстве извлечения: он крадет ценные секреты из глубин подсознания во время сна, когда человеческий разум наиболее уязвим. Редкие способности Кобба сделали его ценным игроком в привычном к предательству мире промышленного шпионажа, но они же превратили его в извечного беглеца и лишили всего, что он когда-либо любил.
И вот у Кобба появляется шанс исправить ошибки. Его последнее дело может вернуть все назад, но для этого ему нужно совершить невозможное - инициацию. Вместо идеальной кражи Кобб и его команда спецов должны будут провернуть обратное. Теперь их задача - не украсть идею, а внедрить ее. Если у них получится, это и станет идеальным преступлением.
Но никакое планирование или мастерство не могут подготовить команду к встрече с опасным противником, который, кажется, предугадывает каждый их ход. Врагом, увидеть которого мог бы лишь Кобб.-
Toп IMDB 250: 14
Toп Кинопоиск 250: 8-Качество: BDRip 720p [Wiki]
Контейнер: MKV
Видео: H.264, 1280x534, 23,976 fps, 5731 kbps
Аудио #1: Russian: AC3 5.1, 48 kHz, 640 kbps avg |Дубляж, Blu-ray CEE|
Аудио #2: Russian: DTS 5.1, 48 kHz, 1536 kbps avg |Двухголосый закадровый, Кубик в Кубе|
Аудио #3: Russian: DTS 5.1, 48 kHz, 1536 kbps avg |Двухголосый закадровый, BBC Saint-Petersburg|
Аудио #4: Russian: DTS 5.1, 48 kHz, 1536 kbps avg |Одноголосый закадровый, А. Гаврилов|
Аудио #5: Russian: DTS 5.1, 48 kHz, 1536 kbps avg |Одноголосый закадровый, Ю. Сербин|
Аудио #6: Ukrainian: AC3 5.1, 48 kHz, 640 kbps avg |Дубляж, Blu-ray CEE|
Аудио #7: English: DTS 5.1, 48 kHz, 1536 kbps avg
Формат субтитров: softsub (SRT)
• За дорожку с переводом BBC Saint-Petersburg большое спасибо Lizing Home Studio!
• Актерская озвучка от студии «Кубик в кубе» сделана по переводу Е.Воронина (voronine). Появлению данной озвучки способствовали: Instigator, DaRkY, Volutar, Spaceded, HDCLUB (mracc, alek_st79, Marvin, Shan1, AzatH, tymoxa, macroMaggot, 8bitman, Alexnoob) и HANSMER. Всем огромное спасибо!

MediaInfo

General
Unique ID : 252444916527844806452428407903390224871 (0xBDEB1F55EDF89B7593DF14FBC0DB51E7)
Complete name : E:\Inception.2010.BDRip.720p.mkv
Format : Matroska
File size : 15.1 GiB
Duration : 2h 28mn
Overall bit rate : 14.6 Mbps
Movie name : Начало
Encoded date : UTC 2012-10-21 16:46:07
Writing application : mkvmerge v5.1.0 ('And so it goes') built on Nov 28 2011 23:58:28
Writing library : libebml v1.2.3 + libmatroska v1.3.0
Video
ID : 1
Format : AVC
Format/Info : Advanced Video Codec
Format profile : High@L4.1
Format settings, CABAC : Yes
Format settings, ReFrames : 12 frames
Codec ID : V_MPEG4/ISO/AVC
Duration : 2h 28mn
Bit rate : 5 445 Kbps
Nominal bit rate : 5 731 Kbps
Width : 1 280 pixels
Height : 534 pixels
Display aspect ratio : 2.40:1
Frame rate : 23.976 fps
Color space : YUV
Chroma subsampling : 4:2:0
Bit depth : 8 bits
Scan type : Progressive
Bits/(Pixel*Frame) : 0.332
Stream size : 5.63 GiB (37%)
Title : Начало
Writing library : x264 core 104 r1698 c41b8f0
Encoding settings : cabac=1 / ref=12 / deblock=1:-3:-3 / analyse=0x3:0x113 / me=umh / subme=10 / psy=1 / psy_rd=1.05:0.01 / mixed_ref=1 / me_range=32 / chroma_me=1 / trellis=2 / 8x8dct=1 / cqm=0 / deadzone=21,11 / fast_pskip=0 / chroma_qp_offset=-5 / threads=24 / sliced_threads=0 / nr=0 / decimate=0 / interlaced=0 / constrained_intra=0 / bframes=5 / b_pyramid=2 / b_adapt=2 / b_bias=0 / direct=3 / weightb=1 / open_gop=0 / weightp=2 / keyint=250 / keyint_min=23 / scenecut=40 / intra_refresh=0 / rc_lookahead=50 / rc=2pass / mbtree=1 / bitrate=5731 / ratetol=1.0 / qcomp=0.60 / qpmin=10 / qpmax=51 / qpstep=4 / cplxblur=20.0 / qblur=0.5 / vbv_maxrate=40000 / vbv_bufsize=40000 / ip_ratio=1.40 / aq=2:0.80 / nal_hrd=none
Language : English
Audio #1
ID : 2
Format : AC-3
Format/Info : Audio Coding 3
Mode extension : CM (complete main)
Codec ID : A_AC3
Duration : 2h 28mn
Bit rate mode : Constant
Bit rate : 640 Kbps
Channel(s) : 6 channels
Channel positions : Front: L C R, Side: L R, LFE
Sampling rate : 48.0 KHz
Bit depth : 16 bits
Compression mode : Lossy
Stream size : 678 MiB (4%)
Title : AC3 - Дубляж (Blu-ray CEE)
Language : Russian
Audio #2
ID : 3
Format : DTS
Format/Info : Digital Theater Systems
Codec ID : A_DTS
Duration : 2h 28mn
Bit rate mode : Constant
Bit rate : 1 510 Kbps
Channel(s) : 6 channels
Channel positions : Front: L C R, Side: L R, LFE
Sampling rate : 48.0 KHz
Bit depth : 24 bits
Compression mode : Lossy
Stream size : 1.56 GiB (10%)
Title : DTS - DVO (Кубик в Кубе)
Language : Russian
Audio #3
ID : 4
Format : DTS
Format/Info : Digital Theater Systems
Codec ID : A_DTS
Duration : 2h 28mn
Bit rate mode : Constant
Bit rate : 1 510 Kbps
Channel(s) : 6 channels
Channel positions : Front: L C R, Side: L R, LFE
Sampling rate : 48.0 KHz
Bit depth : 24 bits
Compression mode : Lossy
Stream size : 1.56 GiB (10%)
Title : DTS - DVO (BBC Saint-Petersburg)
Language : Russian
Audio #4
ID : 5
Format : DTS
Format/Info : Digital Theater Systems
Codec ID : A_DTS
Duration : 2h 28mn
Bit rate mode : Constant
Bit rate : 1 510 Kbps
Channel(s) : 6 channels
Channel positions : Front: L C R, Side: L R, LFE
Sampling rate : 48.0 KHz
Bit depth : 24 bits
Compression mode : Lossy
Stream size : 1.56 GiB (10%)
Title : DTS - AVO (Гаврилов)
Language : Russian
Audio #5
ID : 6
Format : DTS
Format/Info : Digital Theater Systems
Codec ID : A_DTS
Duration : 2h 28mn
Bit rate mode : Constant
Bit rate : 1 510 Kbps
Channel(s) : 6 channels
Channel positions : Front: L C R, Side: L R, LFE
Sampling rate : 48.0 KHz
Bit depth : 24 bits
Compression mode : Lossy
Stream size : 1.56 GiB (10%)
Title : DTS - AVO (Сербин)
Language : Russian
Audio #6
ID : 7
Format : AC-3
Format/Info : Audio Coding 3
Mode extension : CM (complete main)
Codec ID : A_AC3
Duration : 2h 28mn
Bit rate mode : Constant
Bit rate : 640 Kbps
Channel(s) : 6 channels
Channel positions : Front: L C R, Side: L R, LFE
Sampling rate : 48.0 KHz
Bit depth : 16 bits
Compression mode : Lossy
Stream size : 678 MiB (4%)
Title : AC3 - Дубляж (Blu-ray CEE)
Language : Ukrainian
Audio #7
ID : 8
Format : DTS
Format/Info : Digital Theater Systems
Codec ID : A_DTS
Duration : 2h 28mn
Bit rate mode : Constant
Bit rate : 1 510 Kbps
Channel(s) : 6 channels
Channel positions : Front: L C R, Side: L R, LFE
Sampling rate : 48.0 KHz
Bit depth : 24 bits
Compression mode : Lossy
Stream size : 1.56 GiB (10%)
Title : DTS
Language : English
Text #1
ID : 9
Format : UTF-8
Codec ID : S_TEXT/UTF8
Codec ID/Info : UTF-8 Plain Text
Title : Forced (Voronine)
Language : Russian
Text #2
ID : 10
Format : UTF-8
Codec ID : S_TEXT/UTF8
Codec ID/Info : UTF-8 Plain Text
Title : Forced (BD)
Language : Russian
Text #3
ID : 11
Format : UTF-8
Codec ID : S_TEXT/UTF8
Codec ID/Info : UTF-8 Plain Text
Title : Full (Voronine)
Language : Russian
Text #4
ID : 12
Format : UTF-8
Codec ID : S_TEXT/UTF8
Codec ID/Info : UTF-8 Plain Text
Title : Full (BD)
Language : Russian
Text #5
ID : 13
Format : UTF-8
Codec ID : S_TEXT/UTF8
Codec ID/Info : UTF-8 Plain Text
Title : Full SDH (Voronine)
Language : Russian
Text #6
ID : 14
Format : UTF-8
Codec ID : S_TEXT/UTF8
Codec ID/Info : UTF-8 Plain Text
Title : Full
Language : English
Text #7
ID : 15
Format : UTF-8
Codec ID : S_TEXT/UTF8
Codec ID/Info : UTF-8 Plain Text
Title : SDH
Language : English
Menu
00:00:00.000 : en:Chapter 01
00:11:41.743 : en:Chapter 02
00:21:37.338 : en:Chapter 03
00:31:20.337 : en:Chapter 04
00:41:22.230 : en:Chapter 05
00:51:13.737 : en:Chapter 06
01:01:21.553 : en:Chapter 07
01:10:29.684 : en:Chapter 08
01:22:15.597 : en:Chapter 09
01:31:52.590 : en:Chapter 10
01:40:38.532 : en:Chapter 11
01:51:22.175 : en:Chapter 12
02:00:54.414 : en:Chapter 13
02:10:09.051 : en:Chapter 14
02:20:55.447 : en:Chapter 15

Скриншоты

[Цитировать]



Показать сообщения:    

Текущее время: 10-Дек 11:57

Часовой пояс: UTC + 3


Вы не можете начинать темы
Вы не можете отвечать на сообщения
Вы не можете редактировать свои сообщения
Вы не можете удалять свои сообщения
Вы не можете голосовать в опросах
Вы не можете прикреплять файлы к сообщениям
Вы не можете скачивать файлы

!ВНИМАНИЕ!
Сайт не предоставляет электронные версии произведений, а занимается лишь коллекционированием и каталогизацией ссылок, присылаемых и публикуемых на форуме нашими читателями. Если вы являетесь правообладателем какого-либо представленного материала и не желаете, чтобы ссылка на него находилась в нашем каталоге, свяжитесь с нами, и мы незамедлительно удалим ее. Файлы для обмена на трекере предоставлены пользователями сайта, и администрация не несет ответственности за их содержание. Просьба не заливать файлы, защищенные авторскими правами, а также файлы нелегального содержания!