[ Сегодня идет свободное скачивание без начисления Download ]


Статистика раздачи
Нет
 
   
 
Top  
 
 
- BBC: Тайная история британских поместий. Серия №2 / The Country House Revealed (2011) SATRip - Режиссер / Телекомпания: BBC
Русское название: Тайная история британских поместий
Оригинальное название: The Country House Revealed
Год выпуска: 2011
Жанр: Документальный, история, архитектура
Выпущено: Великобритания, BBC
Описание:
Историк архитектуры Дэн Крикшэнк посещает малоизвестные британские поместья, рассказывает об их истории и истории семей, когда-либо проживавших в них. Столь знакомые и вместе с тем таинственные поместья – это визитная карточка Британии. Словно часовые они стоят на сельских просторах. Ежегодно их посещают сотни тысяч людей. Но не все поместья открыты для свободного доступа. Нам выпала честь пройти рядом с порталами шести самых знаменитых поместий, которые чаще всего скрыты от нашего взора. Они были живыми свидетелями пяти веков британской истории. Построившие эти дома семьи сыграли важную роль в жизни страны. Богатое поместье с угодьями – предел мечтаний и символ процветания, показатель социального статуса его хозяина. Нередко на содержание поместья требовались огромные средства. Некоторым семьям так и не удалось найти средства на их содержание – они разорились. Но дома сохранились и до сих пор хранят свои тайны. (из предисловия к фильму)
Режиссёр: Филип Смит
Ведущий: Дэн Крикшэнк
В выпуске: 02. Кинросс Хаус / Kinross House
Шотландия – страна, где замки являлись символом власти дольше, чем в остальной Британии. Еще в Средние века правящая элита предпочитала жить в замках. Но в конце XVII века в Шотландии произошло нечто экстраординарное – появился новый тип дворцов. На их фоне замки выглядели каким-то анахронизмом, словно доспехи средневекового рыцаря. Мы увидим один из таких дворцов, который изменил ход истории – Кинросс Хаус – это первый классический дворец на территории Шотландии.
Озвучено: ТПО "Ред Медиа"
Перевод: Профессиональный двухголосый
Продолжительность: ~ 00:58:44
Видеокодек: XVID
Битрейт видео: ~1800 kb/s
Размер кадра: 720 x 400
Качество видео: SATRip
Аудиокодек: AC-3, 2ch.
Битрейт аудио: 192 kb/s

MediaInfo

Формат : AVI
Формат/Информация : Audio Video Interleave
Размер файла : 841 Мбайт
Продолжительность : 58 м.
Общий поток : 2002 Кбит/сек
Программа кодирования : VirtualDubMod 1.5.10.3 | www.virtualdub-fr.org || (build 2550/release)
Библиотека кодирования : VirtualDubMod build 2550/release
Видео
Идентификатор : 0
Формат : MPEG-4 Visual
Профиль формата : Advanced Simple@L5
Параметр BVOP формата : 2
Параметр QPel формата : Нет
Параметр GMC формата : Без точки перехода
Параметр матрицы формата : Default (H.263)
Идентификатор кодека : XVID
Идентификатор кодека/Подсказка : XviD
Продолжительность : 58 м.
Битрейт : 1800 Кбит/сек
Ширина : 720 пикселей
Высота : 400 пикселей
Соотношение сторон : 16:9
Частота кадров : 25,000 кадров/сек
Цветовое пространство : YUV
Субдискретизация насыщенности : 4:2:0
Битовая глубина : 8 бит
Тип развёртки : Прогрессивная
Метод сжатия : С потерями
Бит/(Пиксели*Кадры) : 0.250
Размер потока : 756 Мбайт (90%)
Библиотека кодирования : XviD 1.2.1 (UTC 2008-12-04)
Аудио
Идентификатор : 1
Формат : AC-3
Формат/Информация : Audio Coding 3
Расширение режима : CM (complete main)
Идентификатор кодека : 2000
Продолжительность : 58 м.
Вид битрейта : Постоянный
Битрейт : 192 Кбит/сек
Каналы : 2 канала
Расположение каналов : Front: L R
Частота : 48,0 КГц
Битовая глубина : 16 бит
Метод сжатия : С потерями
Размер потока : 80,7 Мбайт (10%)
Выравнивание : Разделение по промежуткам
Продолжительность промежутка : 40 мс. (1,00 видеокадр)
Время предзагрузки промежутка : 500 мс.
Скриншоты:

[Цитировать]



Показать сообщения:    

Текущее время: 09-Дек 01:12

Часовой пояс: UTC + 3


Вы не можете начинать темы
Вы не можете отвечать на сообщения
Вы не можете редактировать свои сообщения
Вы не можете удалять свои сообщения
Вы не можете голосовать в опросах
Вы не можете прикреплять файлы к сообщениям
Вы не можете скачивать файлы

!ВНИМАНИЕ!
Сайт не предоставляет электронные версии произведений, а занимается лишь коллекционированием и каталогизацией ссылок, присылаемых и публикуемых на форуме нашими читателями. Если вы являетесь правообладателем какого-либо представленного материала и не желаете, чтобы ссылка на него находилась в нашем каталоге, свяжитесь с нами, и мы незамедлительно удалим ее. Файлы для обмена на трекере предоставлены пользователями сайта, и администрация не несет ответственности за их содержание. Просьба не заливать файлы, защищенные авторскими правами, а также файлы нелегального содержания!