[ Сегодня идет свободное скачивание без начисления Download ]


Статистика раздачи
Нет
 
   
 
Top  
 
 
-Новый Ералаш (эфир от 2013.06.09) (2013) HDTVRip [1080i]- Русское название: Новый Ералаш (эфир от 2013.06.09)
Год выпуска: 2013
Жанр: Комедия, Юмор
Описание фильма:
Команда детского юмористического журнала "Ералаш" вот уже свыше четверти века добавляет хорошего настроения не только своим маленьким зрителям и их родителям, но и бабушкам, дедушкам, тётушкам и дядюшкам. Изменились времена, пионеры и октябрята стали историей – однако смешные истории из их жизни до сих пор интересно смотреть нынешней малышне. А над реалиями новой жизни, в которой путаются даже взрослые, посмеяться можно даже с пользой... Известные актеры, остроумные, однако совсем не злые шутки – все это давно стало своеобразным фирменным знаком "Ералаша".
Режиссер: Борис Грачевский
Продолжительность: 00:31:54
Видеокодек: AVC
Битрейт видео: ~9402 Кбит/с
Размер кадра: 1920x1080
Качество видео: HDTVRip
Аудиокодек: AC3,2ch
Битрейт аудио: 384 Кбит/с

Содержание:

1. Приведения Бывают?
2. Заботливый папа
3. Новый год по-Бразильски
4. С добрым утром
5. Спасайся кто может
6. Каскадер
7. Ни кого нет дома
8. Правильный портфель
9. Прогулка отменяется...
10. Бегущий по волнам 1
11. Новый автомат

MediaInfo:

Общее
Идентификатор : 1 (0x1)
Полное имя : D:\Закачаные\Eralash.HDTV[1080i].ts
Формат : MPEG-TS
Размер файла : 2,30 Гбайт
Продолжительность : 31 м.
Режим общего битрейта : Переменный
Общий поток : 10,3 Мбит/сек
Видео
Идентификатор : 305 (0x131)
Идентификатор меню : 1 (0x1)
Формат : AVC
Формат/Информация : Advanced Video Codec
Профиль формата : High@L4.0
Параметр CABAC формата : Да
Параметр ReFrames формата : 3 кадра
Идентификатор кодека : 27
Продолжительность : 31 м.
Битрейт : 9402 Кбит/сек
Ширина : 1920 пикселей
Высота : 1080 пикселей
Соотношение сторон : 16:9
Частота кадров : 25,000 кадров/сек
Стандарт вещания : Component
Цветовое пространство : YUV
Субдискретизация насыщенности : 4:2:0
Битовая глубина : 8 бит
Тип развёртки : Чересстрочная
Порядок развёртки : Верхнее поле первое
Бит/(Пиксели*Кадры) : 0.181
Размер потока : 2,10 Гбайт (91%)
Основные цвета : BT.709
Характеристики трансфера : BT.709
Коэффициенты матрицы : BT.709
Аудио
Идентификатор : 415 (0x19F)
Идентификатор меню : 1 (0x1)
Формат : AC-3
Формат/Информация : Audio Coding 3
Расширение режима : CM (complete main)
Параметр Endianness формата : Big
Идентификатор кодека : 6
Продолжительность : 31 м.
Вид битрейта : Постоянный
Битрейт : 384 Кбит/сек
Каналы : 2 канала
Расположение каналов : Front: L R
Частота : 48,0 КГц
Битовая глубина : 16 бит
Метод сжатия : С потерями
Размер потока : 87,6 Мбайт (4%)
Язык : Russian
Скриншоты:

[Цитировать]



Показать сообщения:    

Текущее время: 10-Дек 17:44

Часовой пояс: UTC + 3


Вы не можете начинать темы
Вы не можете отвечать на сообщения
Вы не можете редактировать свои сообщения
Вы не можете удалять свои сообщения
Вы не можете голосовать в опросах
Вы не можете прикреплять файлы к сообщениям
Вы не можете скачивать файлы

!ВНИМАНИЕ!
Сайт не предоставляет электронные версии произведений, а занимается лишь коллекционированием и каталогизацией ссылок, присылаемых и публикуемых на форуме нашими читателями. Если вы являетесь правообладателем какого-либо представленного материала и не желаете, чтобы ссылка на него находилась в нашем каталоге, свяжитесь с нами, и мы незамедлительно удалим ее. Файлы для обмена на трекере предоставлены пользователями сайта, и администрация не несет ответственности за их содержание. Просьба не заливать файлы, защищенные авторскими правами, а также файлы нелегального содержания!