[ Сегодня идет свободное скачивание без начисления Download ]


Статистика раздачи
Нет
 
   
 
Top  
 
 
-VA - Remixed & Revised vol.6 (2013)- Год: 2013
Жанр: Trance
Продолжительность: 01:27:34
Издатель (лейбл): Adrian & Raz
Кодек: MP3
Битрейт: 320 кб/с
Тип битрейта: CBR-Трек лист:
01. Ana Criado & Omnia - No One Home (Fon Leman Remix) (05:47)
02. Beat Service - Metro (Digital X Remix) (06:28)
03. Passenger 75 - Contact (Mike Shiver Remix) (06:18)
04. Craving - Legacy (Original Mix) (07:15)
05. Mike Danis - The Miracle (Original Mix) (06:55)
06. Ana Criado & Omnia - No One Home (SNR Remix) (06:49)
07. Cate Kanell & Adrian&Raz - Into The Light (First Effect Extended) (07:40)
08. Carol Lee & Adrian&Raz - I Belong To (Rikkaz & Vast Vision Remix) (07:27)
09. Dart Rayne & Yura Moonlight & Cate Kanell - Shelter Me (Erick Strong Dub) (05:09)
10. Bogdan Vix - Gratitude (Matt Bukovski Remix) (07:22)
11. Ana Criado & Omnia - No One Home (Fon Leman Dub) (05:47)
12. Adrian&Raz & llana - I Shouldn't Say (Alex Ender Uplifting Remix) (07:55)
13. Ana Criado & Omnia - No One Home (SNR Dub) (06:42)-

Дополнительная информация:

http://www.junodownload.com/
http://www.beatport.com/
-

MI

Общее
Полное имя : E:\VA - Remixed & Revised vol.6 (2013)\01. Ana Criado & Omnia - No One Home (Fon Leman Remix).mp3
Формат : MPEG Audio
Размер файла : 13,3 Мбайт
Продолжительность : 5 м. 47 с.
Режим общего битрейта : Постоянный
Общий поток : 320 Кбит/сек
Альбом : Remixed & Revised vol.6
Трек : No One Home (Fon Leman Remix)
Трек/Положение : 01
Исполнитель : Ana Criado & Omnia
Жанр : Trance
Дата записи : 2013
Библиотека кодирования : LAME3.93
Обложка : Yes
Тип обложки : Cover (front)
MIME-тип обложки : image/jpg
Аудио
Формат : MPEG Audio
Версия формата : Version 1
Профиль формата : Layer 3
Продолжительность : 5 м. 47 с.
Вид битрейта : Постоянный
Битрейт : 320 Кбит/сек
Каналы : 2 канала
Частота : 44,1 КГц
Метод сжатия : С потерями
Размер потока : 13,3 Мбайт (100%)
Библиотека кодирования : LAME3.93
Общее
Полное имя : E:\VA - Remixed & Revised vol.6 (2013)\02. Beat Service - Metro (Digital X Remix).mp3
Формат : MPEG Audio
Размер файла : 14,9 Мбайт
Продолжительность : 6 м. 28 с.
Режим общего битрейта : Постоянный
Общий поток : 320 Кбит/сек
Альбом : Remixed & Revised vol.6
Трек : Metro (Digital X Remix)
Трек/Положение : 02
Исполнитель : Beat Service
Жанр : Trance
Дата записи : 2013
Библиотека кодирования : LAME3.93
Обложка : Yes
Тип обложки : Cover (front)
MIME-тип обложки : image/jpg
Аудио
Формат : MPEG Audio
Версия формата : Version 1
Профиль формата : Layer 3
Продолжительность : 6 м. 29 с.
Вид битрейта : Постоянный
Битрейт : 320 Кбит/сек
Каналы : 2 канала
Частота : 44,1 КГц
Метод сжатия : С потерями
Размер потока : 14,8 Мбайт (100%)
Библиотека кодирования : LAME3.93
Общее
Полное имя : E:\VA - Remixed & Revised vol.6 (2013)\03. Passenger 75 - Contact (Mike Shiver Remix).mp3
Формат : MPEG Audio
Размер файла : 14,5 Мбайт
Продолжительность : 6 м. 18 с.
Режим общего битрейта : Постоянный
Общий поток : 320 Кбит/сек
Альбом : Remixed & Revised vol.6
Трек : Contact (Mike Shiver Remix)
Трек/Положение : 03
Исполнитель : Passenger 75
Жанр : Trance
Дата записи : 2013
Библиотека кодирования : LAME3.93
Обложка : Yes
Тип обложки : Cover (front)
MIME-тип обложки : image/jpg
Аудио
Формат : MPEG Audio
Версия формата : Version 1
Профиль формата : Layer 3
Продолжительность : 6 м. 18 с.
Вид битрейта : Постоянный
Битрейт : 320 Кбит/сек
Каналы : 2 канала
Частота : 44,1 КГц
Метод сжатия : С потерями
Размер потока : 14,4 Мбайт (100%)
Библиотека кодирования : LAME3.93
Общее
Полное имя : E:\VA - Remixed & Revised vol.6 (2013)\04. Craving - Legacy (Original Mix).mp3
Формат : MPEG Audio
Размер файла : 16,6 Мбайт
Продолжительность : 7 м. 15 с.
Режим общего битрейта : Постоянный
Общий поток : 320 Кбит/сек
Альбом : Remixed & Revised vol.6
Трек : Legacy (Original Mix)
Трек/Положение : 04
Исполнитель : Craving
Жанр : Trance
Дата записи : 2013
Библиотека кодирования : LAME3.93
Обложка : Yes
Тип обложки : Cover (front)
MIME-тип обложки : image/jpg
Аудио
Формат : MPEG Audio
Версия формата : Version 1
Профиль формата : Layer 3
Продолжительность : 7 м. 15 с.
Вид битрейта : Постоянный
Битрейт : 320 Кбит/сек
Каналы : 2 канала
Частота : 44,1 КГц
Метод сжатия : С потерями
Размер потока : 16,6 Мбайт (100%)
Библиотека кодирования : LAME3.93
Общее
Полное имя : E:\VA - Remixed & Revised vol.6 (2013)\05. Mike Danis - The Miracle (Original Mix).mp3
Формат : MPEG Audio
Размер файла : 15,9 Мбайт
Продолжительность : 6 м. 55 с.
Режим общего битрейта : Постоянный
Общий поток : 320 Кбит/сек
Альбом : Remixed & Revised vol.6
Трек : The Miracle (Original Mix)
Трек/Положение : 05
Исполнитель : Mike Danis
Жанр : Trance
Дата записи : 2013
Библиотека кодирования : LAME3.93
Обложка : Yes
Тип обложки : Cover (front)
MIME-тип обложки : image/jpg
Аудио
Формат : MPEG Audio
Версия формата : Version 1
Профиль формата : Layer 3
Продолжительность : 6 м. 55 с.
Вид битрейта : Постоянный
Битрейт : 320 Кбит/сек
Каналы : 2 канала
Частота : 44,1 КГц
Метод сжатия : С потерями
Размер потока : 15,8 Мбайт (100%)
Библиотека кодирования : LAME3.93
Общее
Полное имя : E:\VA - Remixed & Revised vol.6 (2013)\06. Ana Criado & Omnia - No One Home (SNR Remix).mp3
Формат : MPEG Audio
Размер файла : 15,6 Мбайт
Продолжительность : 6 м. 49 с.
Режим общего битрейта : Постоянный
Общий поток : 320 Кбит/сек
Альбом : Remixed & Revised vol.6
Трек : No One Home (SNR Remix)
Трек/Положение : 06
Исполнитель : Ana Criado & Omnia
Жанр : Trance
Дата записи : 2013
Библиотека кодирования : LAME3.93
Обложка : Yes
Тип обложки : Cover (front)
MIME-тип обложки : image/jpg
Аудио
Формат : MPEG Audio
Версия формата : Version 1
Профиль формата : Layer 3
Продолжительность : 6 м. 49 с.
Вид битрейта : Постоянный
Битрейт : 320 Кбит/сек
Каналы : 2 канала
Частота : 44,1 КГц
Метод сжатия : С потерями
Размер потока : 15,6 Мбайт (100%)
Библиотека кодирования : LAME3.93
Общее
Полное имя : E:\VA - Remixed & Revised vol.6 (2013)\07. Cate Kanell & Adrian&Raz - Into The Light (First Effect Extended).mp3
Формат : MPEG Audio
Размер файла : 17,6 Мбайт
Продолжительность : 7 м. 40 с.
Режим общего битрейта : Постоянный
Общий поток : 320 Кбит/сек
Альбом : Remixed & Revised vol.6
Трек : Into The Light (First Effect Extended)
Трек/Положение : 07
Исполнитель : Cate Kanell & Adrian&Raz
Жанр : Trance
Дата записи : 2013
Библиотека кодирования : LAME3.93
Обложка : Yes
Тип обложки : Cover (front)
MIME-тип обложки : image/jpg
Аудио
Формат : MPEG Audio
Версия формата : Version 1
Профиль формата : Layer 3
Продолжительность : 7 м. 41 с.
Вид битрейта : Постоянный
Битрейт : 320 Кбит/сек
Каналы : 2 канала
Частота : 44,1 КГц
Метод сжатия : С потерями
Размер потока : 17,6 Мбайт (100%)
Библиотека кодирования : LAME3.93
Общее
Полное имя : E:\VA - Remixed & Revised vol.6 (2013)\08. Carol Lee & Adrian&Raz - I Belong To (Rikkaz & Vast Vision Remix).mp3
Формат : MPEG Audio
Размер файла : 17,1 Мбайт
Продолжительность : 7 м. 27 с.
Режим общего битрейта : Постоянный
Общий поток : 320 Кбит/сек
Альбом : Remixed & Revised vol.6
Трек : I Belong To (Rikkaz & Vast Vision Remix)
Трек/Положение : 08
Исполнитель : Carol Lee & Adrian&Raz
Жанр : Trance
Дата записи : 2013
Библиотека кодирования : LAME3.93
Обложка : Yes
Тип обложки : Cover (front)
MIME-тип обложки : image/jpg
Аудио
Формат : MPEG Audio
Версия формата : Version 1
Профиль формата : Layer 3
Продолжительность : 7 м. 27 с.
Вид битрейта : Постоянный
Битрейт : 320 Кбит/сек
Каналы : 2 канала
Частота : 44,1 КГц
Метод сжатия : С потерями
Размер потока : 17,1 Мбайт (100%)
Библиотека кодирования : LAME3.93
Общее
Полное имя : E:\VA - Remixed & Revised vol.6 (2013)\09. Dart Rayne & Yura Moonlight & Cate Kanell - Shelter Me (Erick Strong Dub).mp3
Формат : MPEG Audio
Размер файла : 11,8 Мбайт
Продолжительность : 5 м. 9 с.
Режим общего битрейта : Постоянный
Общий поток : 320 Кбит/сек
Альбом : Remixed & Revised vol.6
Трек : Shelter Me (Erick Strong Dub)
Трек/Положение : 09
Исполнитель : Dart Rayne & Yura Moonlight & Cate Kanell
Жанр : Trance
Дата записи : 2013
Библиотека кодирования : LAME3.93
Обложка : Yes
Тип обложки : Cover (front)
MIME-тип обложки : image/jpg
Аудио
Формат : MPEG Audio
Версия формата : Version 1
Профиль формата : Layer 3
Продолжительность : 5 м. 9 с.
Вид битрейта : Постоянный
Битрейт : 320 Кбит/сек
Каналы : 2 канала
Частота : 44,1 КГц
Метод сжатия : С потерями
Размер потока : 11,8 Мбайт (100%)
Библиотека кодирования : LAME3.93
Общее
Полное имя : E:\VA - Remixed & Revised vol.6 (2013)\10. Bogdan Vix - Gratitude (Matt Bukovski Remix).mp3
Формат : MPEG Audio
Размер файла : 16,9 Мбайт
Продолжительность : 7 м. 22 с.
Режим общего битрейта : Постоянный
Общий поток : 320 Кбит/сек
Альбом : Remixed & Revised vol.6
Трек : Gratitude (Matt Bukovski Remix)
Трек/Положение : 10
Исполнитель : Bogdan Vix
Жанр : Trance
Дата записи : 2013
Библиотека кодирования : LAME3.93
Обложка : Yes
Тип обложки : Cover (front)
MIME-тип обложки : image/jpg
Аудио
Формат : MPEG Audio
Версия формата : Version 1
Профиль формата : Layer 3
Продолжительность : 7 м. 22 с.
Вид битрейта : Постоянный
Битрейт : 320 Кбит/сек
Каналы : 2 канала
Частота : 44,1 КГц
Метод сжатия : С потерями
Размер потока : 16,9 Мбайт (100%)
Библиотека кодирования : LAME3.93
Общее
Полное имя : E:\VA - Remixed & Revised vol.6 (2013)\11. Ana Criado & Omnia - No One Home (Fon Leman Dub).mp3
Формат : MPEG Audio
Размер файла : 13,3 Мбайт
Продолжительность : 5 м. 47 с.
Режим общего битрейта : Постоянный
Общий поток : 320 Кбит/сек
Альбом : Remixed & Revised vol.6
Трек : No One Home (Fon Leman Dub)
Трек/Положение : 11
Исполнитель : Ana Criado & Omnia
Жанр : Trance
Дата записи : 2013
Библиотека кодирования : LAME3.93
Обложка : Yes
Тип обложки : Cover (front)
MIME-тип обложки : image/jpg
Аудио
Формат : MPEG Audio
Версия формата : Version 1
Профиль формата : Layer 3
Продолжительность : 5 м. 47 с.
Вид битрейта : Постоянный
Битрейт : 320 Кбит/сек
Каналы : 2 канала
Частота : 44,1 КГц
Метод сжатия : С потерями
Размер потока : 13,3 Мбайт (100%)
Библиотека кодирования : LAME3.93
Общее
Полное имя : E:\VA - Remixed & Revised vol.6 (2013)\12. Adrian&Raz & llana - I Shouldn't Say (Alex Ender Uplifting Remix).mp3
Формат : MPEG Audio
Размер файла : 18,2 Мбайт
Продолжительность : 7 м. 55 с.
Режим общего битрейта : Постоянный
Общий поток : 320 Кбит/сек
Альбом : Remixed & Revised vol.6
Трек : I Shouldn't Say (Alex Ender Uplifting Remix)
Трек/Положение : 12
Исполнитель : Adrian&Raz & llana
Жанр : Trance
Дата записи : 2013
Библиотека кодирования : LAME3.93
Обложка : Yes
Тип обложки : Cover (front)
MIME-тип обложки : image/jpg
Аудио
Формат : MPEG Audio
Версия формата : Version 1
Профиль формата : Layer 3
Продолжительность : 7 м. 56 с.
Вид битрейта : Постоянный
Битрейт : 320 Кбит/сек
Каналы : 2 канала
Частота : 44,1 КГц
Метод сжатия : С потерями
Размер потока : 18,2 Мбайт (100%)
Библиотека кодирования : LAME3.93
Общее
Полное имя : E:\VA - Remixed & Revised vol.6 (2013)\13. Ana Criado & Omnia - No One Home (SNR Dub).mp3
Формат : MPEG Audio
Размер файла : 15,4 Мбайт
Продолжительность : 6 м. 42 с.
Режим общего битрейта : Постоянный
Общий поток : 320 Кбит/сек
Альбом : Remixed & Revised vol.6
Трек : No One Home (SNR Dub)
Трек/Положение : 13
Исполнитель : Ana Criado & Omnia
Жанр : Trance
Дата записи : 2013
Библиотека кодирования : LAME3.93
Обложка : Yes
Тип обложки : Cover (front)
MIME-тип обложки : image/jpg
Аудио
Формат : MPEG Audio
Версия формата : Version 1
Профиль формата : Layer 3
Продолжительность : 6 м. 42 с.
Вид битрейта : Постоянный
Битрейт : 320 Кбит/сек
Каналы : 2 канала
Частота : 44,1 КГц
Метод сжатия : С потерями
Размер потока : 15,3 Мбайт (100%)
Библиотека кодирования : LAME3.93
Общее
Полное имя : E:\VA - Remixed & Revised vol.6 (2013)\Cover.jpg
Формат : JPEG
Размер файла : 143 Кбайт
Изображения
Формат : JPEG
Ширина : 700 пикселей
Высота : 700 пикселей
Цветовое пространство : YUV
Субдискретизация насыщенности : 4:2:0
Битовая глубина : 8 бит
Метод сжатия : С потерями
Размер потока : 143 Кбайт (100%)
-Время раздачи: До пяти сидирующих.

[Цитировать]



Показать сообщения:    

Текущее время: 18-Янв 16:58

Часовой пояс: UTC + 3


Вы не можете начинать темы
Вы не можете отвечать на сообщения
Вы не можете редактировать свои сообщения
Вы не можете удалять свои сообщения
Вы не можете голосовать в опросах
Вы не можете прикреплять файлы к сообщениям
Вы не можете скачивать файлы

!ВНИМАНИЕ!
Сайт не предоставляет электронные версии произведений, а занимается лишь коллекционированием и каталогизацией ссылок, присылаемых и публикуемых на форуме нашими читателями. Если вы являетесь правообладателем какого-либо представленного материала и не желаете, чтобы ссылка на него находилась в нашем каталоге, свяжитесь с нами, и мы незамедлительно удалим ее. Файлы для обмена на трекере предоставлены пользователями сайта, и администрация не несет ответственности за их содержание. Просьба не заливать файлы, защищенные авторскими правами, а также файлы нелегального содержания!