[ Сегодня идет свободное скачивание без начисления Download ]


Статистика раздачи
Нет
 
   
 
Top  
 
 
-Газетчик / The Paperboy (2012) BDRip -Русское название: Газетчик
Оригинальное название: The Paperboy
Год выпуска: 2012
Производство: США
Жанр: Триллер-Описание фильма:
Конец 1960-х; успешный журналист Уорд расследует дерзкое убийство влиятельного шерифа-расиста в маленьком южном городке. Его цель — освободить несправедливо осуждённого и заодно сделать вместе с коллегой из Лондона сенсационный материал. Журналистам помогает юный разносчик газет Джек — родной брат Уорда, и невероятно сексапильная блондинка Шарлотта: она влюбилась по переписке в того самого заключенного из камеры смертников. Каждому из героев есть что скрывать и чего бояться — но раскалённый воздух Юга пробуждает самые тёмные и горячие желания…-Режиссер: Ли Дэниелс
Актеры: Мэттью МакКонахи, Зак Эфрон, Николь Кидман, Джон Кьюсак, Мейси Грэй, Дэвид Ойелоуо, Скотт Гленн, Нед Беллами, Ниалла Гордон, Эдрик Браун-Продолжительность: 01:46:45
Перевод: Профессиональный (дублированный) |НТВ+|
Язык субтитров: русские, английские (*.srt, отдельным файлом)- -Дата мировой премьеры: 24 мая 2012
Дата выхода DVD релиза: 1 ноября 2012, «Наше Кино»-Релиз от: -Автор рипа: Yarmak23-Качество видео: BDRip |исходник: BDRemux - |
Формат видео: AVI
Видео: 720x304 (2.35:1), 23.976 fps, XviD 65 ~2273 kbps avg, 0.433 bit/pixel
Аудио #1: 48 kHz, AC3 Dolby Digital, 2/0 (L,R) ch, 192 kbps Constant |Дубляж, НТВ+|
Аудио #2: 48 kHz, AC3 Dolby Digital, 3/2 (L,C,R,l,r) + LFE ch, 448.00 kbps Constant |Оригинал|
Скачать: Сэмпл

MediaInfo

General
Complete name : Gazetchik.2012.D.BDRip.2.18GB_by_Yarmak23.avi
Format : AVI
Format/Info : Audio Video Interleave
Format profile : OpenDML
File size : 2.19 GiB
Duration : 1h 46mn
Overall bit rate : 2 931 Kbps
Writing application : VirtualDubModRus 1.5.10.2 (build 2542/release)
Writing library : VirtualDubMod build 2542/release
Video
ID : 0
Format : MPEG-4 Visual
Format profile : Advanced [email protected]
Format settings, BVOP : 1
Format settings, QPel : No
Format settings, GMC : No warppoints
Format settings, Matrix : Custom
Codec ID : XVID
Codec ID/Hint : XviD
Duration : 1h 46mn
Bit rate : 2 273 Kbps
Width : 720 pixels
Height : 304 pixels
Display aspect ratio : 2.35:1
Frame rate : 23.976 fps
Color space : YUV
Chroma subsampling : 4:2:0
Bit depth : 8 bits
Scan type : Progressive
Compression mode : Lossy
Bits/(Pixel*Frame) : 0.433
Stream size : 1.70 GiB (78%)
Writing library : XviD 65
Audio #1
ID : 1
Format : AC-3
Format/Info : Audio Coding 3
Mode extension : CM (complete main)
Format settings, Endianness : Big
Codec ID : 2000
Duration : 1h 46mn
Bit rate mode : Constant
Bit rate : 192 Kbps
Channel(s) : 2 channels
Channel positions : Front: L R
Sampling rate : 48.0 KHz
Bit depth : 16 bits
Compression mode : Lossy
Stream size : 147 MiB (7%)
Alignment : Split accross interleaves
Interleave, duration : 42 ms (1.00 video frame)
Interleave, preload duration : 500 ms
Audio #2
ID : 2
Format : AC-3
Format/Info : Audio Coding 3
Mode extension : CM (complete main)
Format settings, Endianness : Big
Codec ID : 2000
Duration : 1h 46mn
Bit rate mode : Constant
Bit rate : 448 Kbps
Channel(s) : 6 channels
Channel positions : Front: L C R, Side: L R, LFE
Sampling rate : 48.0 KHz
Bit depth : 16 bits
Compression mode : Lossy
Stream size : 342 MiB (15%)
Alignment : Split accross interleaves
Interleave, duration : 42 ms (1.00 video frame)
Interleave, preload duration : 500 ms
Скриншоты:
-Время раздачи: 24/7 (до 7 скачавших)

[Цитировать]



Показать сообщения:    

Текущее время: 06-Дек 20:57

Часовой пояс: UTC + 3


Вы не можете начинать темы
Вы не можете отвечать на сообщения
Вы не можете редактировать свои сообщения
Вы не можете удалять свои сообщения
Вы не можете голосовать в опросах
Вы не можете прикреплять файлы к сообщениям
Вы не можете скачивать файлы

!ВНИМАНИЕ!
Сайт не предоставляет электронные версии произведений, а занимается лишь коллекционированием и каталогизацией ссылок, присылаемых и публикуемых на форуме нашими читателями. Если вы являетесь правообладателем какого-либо представленного материала и не желаете, чтобы ссылка на него находилась в нашем каталоге, свяжитесь с нами, и мы незамедлительно удалим ее. Файлы для обмена на трекере предоставлены пользователями сайта, и администрация не несет ответственности за их содержание. Просьба не заливать файлы, защищенные авторскими правами, а также файлы нелегального содержания!