[ Сегодня идет свободное скачивание без начисления Download ]


Статистика раздачи
Нет
 
   
 
 
 
-Тревожный вызов / The Call (2013) BDRip-«Из 188 миллионов звонков, этот предназначался персонально ей»- Русское название: Тревожный вызов
Оригинальное название: The Call
Год выпуска: 2013
Производство: США / Troika Pictures, WWE Studios, Emergency Films
Жанр: Триллер
Перевод: Дублированный
Субтитры: Вшитые отключаемые
Язык субтитров: Английский (полные, SDH)
Дата мировой премьеры: 15 марта 2013
Дата российской премьеры: 14 марта 2013, «Top Film Distribution»
Дата выхода DVD релиза: 13 июня 2013, «Новый Диск», «New Dream media»
Режиссер: Брэд Андерсон
Продюсер: Брэдли Галло, Джеффри Грауп, Майкл А. Хелфант
Актеры: Холли Берри, Эбигейл Бреслин, Моррис Честнат, Майкл Эклунд, Майкл Империоли, Жустина Мачадо, Хосе Суньига, Рома Маффиа, Эви Томпсон
Описание фильма:
Фильм расскажет про оператора колл-центра 911, куда поступает звонок от девочки-подростка, ставшей жертвой маньяка. Героине предстоит столкнуться со своими кошмарами, чтобы спасти девушку.

Продолжительность: 01:34:13
Качество видео: BDRip-Видеокодек: MPEG-4 AVC/H.264
Битрейт видео: ~8450 kbps
Размер кадра: 1920 x 1040
Аудиокодек: AC3 5.1 / DTS
Аудио 1: Русский, AC3 5.1, 448 kbps, 48 kHz
Аудио 2: Английский, DTS 5.1, 1509 kbps, 48 kHz-Сэмпл: Скачать

MediaInfo:

Общее
Уникальный идентификатор : 227858950256888647772031265436554321817 (0xAB6C099C329F03ABBAA75BC61F815F99)
Полное имя : D:\Films\The.Call.2013.1080p.BDRip.mkv
Формат : Matroska
Версия формата : Version 2
Размер файла : 6,85 Гбайт
Продолжительность : 1 ч. 34 м.
Общий поток : 10,4 Мбит/сек
Дата кодирования : UTC 2013-06-12 08:08:13
Программа кодирования : mkvmerge v5.2.0 ('I can't explain') built on Dec 18 2011 18:12:03
Библиотека кодирования : libebml v1.2.3 + libmatroska v1.3.0
Видео
Идентификатор : 1
Формат : AVC
Формат/Информация : Advanced Video Codec
Профиль формата : High@L4.1
Параметр CABAC формата : Да
Параметр ReFrames формата : 4 кадра
Идентификатор кодека : V_MPEG4/ISO/AVC
Продолжительность : 1 ч. 34 м.
Битрейт : 8450 Кбит/сек
Ширина : 1920 пикселей
Высота : 1040 пикселей
Соотношение сторон : 1,85:1
Режим частоты кадров : Постоянный
Частота кадров : 23,976 кадра/сек
Цветовое пространство : YUV
Субдискретизация насыщенности : 4:2:0
Битовая глубина : 8 бит
Тип развёртки : Прогрессивная
Бит/(Пиксели*Кадры) : 0.177
Размер потока : 5,42 Гбайт (79%)
Библиотека кодирования : x264 core 133 r2334 a3ac64b
Настройки программы : cabac=1 / ref=4 / deblock=1:0:0 / analyse=0x3:0x133 / me=umh / subme=7 / psy=1 / psy_rd=1.00:0.00 / mixed_ref=1 / me_range=16 / chroma_me=1 / trellis=1 / 8x8dct=1 / cqm=0 / deadzone=21,11 / fast_pskip=0 / chroma_qp_offset=-2 / threads=12 / lookahead_threads=2 / sliced_threads=0 / nr=0 / decimate=1 / interlaced=0 / bluray_compat=0 / constrained_intra=0 / bframes=3 / b_pyramid=2 / b_adapt=1 / b_bias=0 / direct=1 / weightb=1 / open_gop=0 / weightp=2 / keyint=250 / keyint_min=23 / scenecut=40 / intra_refresh=0 / rc_lookahead=40 / rc=2pass / mbtree=1 / bitrate=8450 / ratetol=1.0 / qcomp=0.60 / qpmin=0 / qpmax=69 / qpstep=4 / cplxblur=20.0 / qblur=0.5 / ip_ratio=1.40 / aq=1:1.00
Язык : English
Default : Да
Forced : Нет
Аудио #1
Идентификатор : 2
Формат : AC-3
Формат/Информация : Audio Coding 3
Расширение режима : CM (complete main)
Параметр Endianness формата : Big
Идентификатор кодека : A_AC3
Продолжительность : 1 ч. 34 м.
Вид битрейта : Постоянный
Битрейт : 448 Кбит/сек
Каналы : 6 каналов
Расположение каналов : Front: L C R, Side: L R, LFE
Частота : 48,0 КГц
Битовая глубина : 16 бит
Метод сжатия : С потерями
Размер потока : 302 Мбайт (4%)
Заголовок : DUB
Язык : Russian
Default : Да
Forced : Нет
Аудио #2
Идентификатор : 3
Формат : DTS
Формат/Информация : Digital Theater Systems
Режим : 16
Параметр Endianness формата : Big
Идентификатор кодека : A_DTS
Продолжительность : 1 ч. 34 м.
Вид битрейта : Постоянный
Битрейт : 1509 Кбит/сек
Каналы : 6 каналов
Расположение каналов : Front: L C R, Side: L R, LFE
Частота : 48,0 КГц
Битовая глубина : 24 бит
Метод сжатия : С потерями
Размер потока : 1017 Мбайт (15%)
Язык : English
Default : Нет
Forced : Нет
Текст #1
Идентификатор : 4
Формат : UTF-8
Идентификатор кодека : S_TEXT/UTF8
Идентификатор кодека/Информация : UTF-8 Plain Text
Язык : English
Default : Нет
Forced : Нет
Текст #2
Идентификатор : 5
Формат : UTF-8
Идентификатор кодека : S_TEXT/UTF8
Идентификатор кодека/Информация : UTF-8 Plain Text
Заголовок : SDH
Язык : English
Default : Нет
Forced : Нет
Меню
00:00:00.000 : en:00:00:00.000
00:06:26.678 : en:00:06:26.678
00:12:30.500 : en:00:12:30.500
00:17:15.034 : en:00:17:15.034
00:24:12.409 : en:00:24:12.409
00:30:43.759 : en:00:30:43.759
00:36:00.075 : en:00:36:00.075
00:42:41.726 : en:00:42:41.726
00:46:51.892 : en:00:46:51.892
00:49:57.912 : en:00:49:57.912
00:54:50.913 : en:00:54:50.913
01:01:31.563 : en:01:01:31.563
01:06:08.173 : en:01:06:08.173
01:12:30.638 : en:01:12:30.638
01:20:04.216 : en:01:20:04.216
01:26:01.782 : en:01:26:01.782
-Скриншоты:
-Время раздачи: С 8:00 до 22:00 до 5 скачавших

[Цитировать]



Показать сообщения:    

Текущее время: 07-Дек 17:31

Часовой пояс: UTC + 3


Вы не можете начинать темы
Вы не можете отвечать на сообщения
Вы не можете редактировать свои сообщения
Вы не можете удалять свои сообщения
Вы не можете голосовать в опросах
Вы не можете прикреплять файлы к сообщениям
Вы не можете скачивать файлы

!ВНИМАНИЕ!
Сайт не предоставляет электронные версии произведений, а занимается лишь коллекционированием и каталогизацией ссылок, присылаемых и публикуемых на форуме нашими читателями. Если вы являетесь правообладателем какого-либо представленного материала и не желаете, чтобы ссылка на него находилась в нашем каталоге, свяжитесь с нами, и мы незамедлительно удалим ее. Файлы для обмена на трекере предоставлены пользователями сайта, и администрация не несет ответственности за их содержание. Просьба не заливать файлы, защищенные авторскими правами, а также файлы нелегального содержания!