[ Сегодня идет свободное скачивание без начисления Download ]


Статистика раздачи
Нет
 
   
 
Top  
 
 
--Поворот не туда 2: Тупик / Wrong Turn 2: Dead End«In the Forest, Only They Can Hear You Scream.»- -Год выпуска: 2007
Страна: США
Жанр: триллер
Продолжительность: 01:36:57
Перевод №1: Профессиональный (полное дублирование)
Перевод №2: Профессиональный (двухголосый закадровый)
Перевод №3: Авторский (одноголосый закадровый, А.Дольский)
Субтитры: Русские, Английские-Режиссер: Джо Линч / Joe Lynch
Сценарий: Тури Мейер / Turi Meyer, Аль Септейн / Al Septien, Алан Б. МакЭлрой / Alan B. McElroy
Продюсер: Джефф Фрейлих / Jeff Freilich, Эрик Фейг / Erik Feig, Роберт Кюльзер / Robert Kulzer
Оператор: Робин Ловен / Robin Loewen
Композитор: Беар МакКрири / Bear McCreary
В ролях: Эрика Лирсен / Erica Leerhsen (Nina Papas), Генри Роллинз / Henry Rollins (Dale Murphy), Тексас Бэттл / Texas Battle (Jake Washington), Алекса Палладино / Aleksa Palladino (Mara Stone), Даниэлла Алонсо / Daniella Alonso (Amber), Стив Браун / Steve Braun (Jonesy Lewis), Мэттью Карри Холмс / Matthew Currie Holmes (M), Кристал Лоу / Crystal Lowe (Elena Miller), Кимберли Колдуэлл / Kimberly Caldwell (Kimberly), Уэйн Робсон / Wayne Robson (Old Timer), Кен Кирзингер / Ken Kirzinger (Pa), Эшли Эрл / Ashlea Earl (Ma)-Описание: В печально известном по событиям первого фильма лесу, местная телекомпания снимает реалити-шоу в духе «Последнего героя». Участникам проекта предстоит вести образ жизни первобытных племен без современных средств связи… на радость обитающим неподалеку каннибалам.-
Доп. информация: Исходник Поворот не туда 2: Тупик / Wrong Turn 2: Dead End (Джо Линч / Joe Lynch) [2007 г., ужасы, боевик, триллер, BDRemux 1080p] [Unrated] Dub + DVO + AVO (Дольский)-Качество: Blu-ray Rip 1080p
Формат: MKV
Видео: MPEG-4 AVC (H264), High Profile 4.1, 1916x1080, 23.976 fps, ~16200 kbps avg, bit/(pixel*frame) 0.327
Аудио №1: Russian: 48 kHz, AC3, 3/2 (L,C,R,l,r) + LFE ch, ~384.00 kbps avg //дубляж
Аудио №2: Russian: 48 kHz, AC3, 2.0 (L,R) ch, ~192.00 kbps avg //двухголосый
Аудио №3: Russian: 48 kHz, DTS, 3/2 (L,C,R,l,r) + LFE ch, ~1510.00 kbps avg //одноголосый закадровый (А.Дольский)
Аудио №4: English: 48 kHz, DTS, 3/2 (L,C,R,l,r) + LFE ch, ~1510.00 kbps avg //original
Субтитры: Russian, English SDH (Softsub SRT)
Навигация по главам: есть-

Скриншоты

Blu-Ray vs Rip







MediaInfo

L:\Wrong Turn II - Dead End [Поворот не туда 2 - Тупик] (2007) 1916x1080 BDRip RusEngSubsChpt.mkv
General
Unique ID : 252578086613164661258553508845651881636 (0xBE04C520B6E53945B2EAAD6B7F05EEA4)
Complete name : L:\Wrong Turn II - Dead End [Поворот не туда 2 - Тупик] (2007) 1916x1080 BDRip RusEngSubsChpt.mkv
Format : Matroska
Format version : Version 4 / Version 2
File size : 13.6 GiB
Duration : 1h 36mn
Overall bit rate : 20.1 Mbps
Movie name : -=RbM=-
Encoded date : UTC 2013-04-28 14:10:28
Writing application : mkvmerge v6.2.0 ('Promised Land') built on Apr 28 2013 12:22:01
Writing library : libebml v1.3.0 + libmatroska v1.4.0
Video #1
ID : 1
Format : AVC
Format/Info : Advanced Video Codec
Format profile : High@L4.1
Format settings, CABAC : Yes
Format settings, ReFrames : 4 frames
Codec ID : V_MPEG4/ISO/AVC
Duration : 1h 36mn
Bit rate : 16.1 Mbps
Width : 1 916 pixels
Height : 1 080 pixels
Display aspect ratio : 16:9
Frame rate mode : Constant
Frame rate : 23.976 fps
Color space : YUV
Chroma subsampling : 4:2:0
Bit depth : 8 bits
Scan type : Progressive
Bits/(Pixel*Frame) : 0.325
Stream size : 10.9 GiB (80%)
Title : 70% of the original
Writing library : x264 core 132 r2309+704+40 1360ac3 tMod [8-bit@all X86_64]
Encoding settings : cabac=1 / ref=4 / deblock=1:-2:-2 / analyse=0x3:0x133 / me=umh / subme=11 / psy=1 / fade_compensate=0.00 / psy_rd=1.00:0.15 / mixed_ref=1 / me_range=32 / chroma_me=1 / trellis=2 / 8x8dct=1 / cqm=0 / deadzone=21,11 / fast_pskip=0 / chroma_qp_offset=-3 / threads=12 / lookahead_threads=3 / sliced_threads=0 / nr=0 / decimate=1 / interlaced=0 / bluray_compat=0 / constrained_intra=0 / fgo=0 / bframes=10 / b_pyramid=2 / b_adapt=2 / b_bias=0 / direct=3 / weightb=1 / open_gop=0 / weightp=2 / keyint=240 / keyint_min=23 / scenecut=40 / intra_refresh=0 / rc=crf / mbtree=0 / crf=19.5000 / qcomp=0.60 / qpmin=0 / qpmax=69 / qpstep=4 / ip_ratio=1.25 / pb_ratio=1.13 / aq=1:0.50 / aq-sensitivity=10.00 / aq-factor=1.00:1.00:1.00 / aq2=0 / aq3=0
Language : English
Default : Yes
Forced : No
Color primaries : BT.709
Transfer characteristics : BT.709
Matrix coefficients : BT.709
Audio #2
ID : 2
Format : AC-3
Format/Info : Audio Coding 3
Mode extension : CM (complete main)
Format settings, Endianness : Big
Codec ID : A_AC3
Duration : 1h 36mn
Bit rate mode : Constant
Bit rate : 384 Kbps
Channel(s) : 6 channels
Channel positions : Front: L C R, Side: L R, LFE
Sampling rate : 48.0 KHz
Bit depth : 16 bits
Compression mode : Lossy
Stream size : 266 MiB (2%)
Title : Dub AC3 5.1ch 384kbps
Language : Russian
Default : Yes
Forced : No
Audio #3
ID : 3
Format : AC-3
Format/Info : Audio Coding 3
Mode extension : CM (complete main)
Format settings, Endianness : Big
Codec ID : A_AC3
Duration : 1h 36mn
Bit rate mode : Constant
Bit rate : 192 Kbps
Channel(s) : 2 channels
Channel positions : Front: L R
Sampling rate : 48.0 KHz
Bit depth : 16 bits
Compression mode : Lossy
Stream size : 133 MiB (1%)
Title : DVO AC3 2.0ch 192kbps
Language : Russian
Default : No
Forced : No
Audio #4
ID : 4
Format : DTS
Format/Info : Digital Theater Systems
Mode : 16
Format settings, Endianness : Big
Codec ID : A_DTS
Duration : 1h 36mn
Bit rate mode : Constant
Bit rate : 1 509 Kbps
Channel(s) : 6 channels
Channel positions : Front: L C R, Side: L R, LFE
Sampling rate : 48.0 KHz
Bit depth : 24 bits
Compression mode : Lossy
Stream size : 1.02 GiB (7%)
Title : AVO DTS 5.1ch 1510kbps (А.Дольский)
Language : Russian
Default : No
Forced : No
Audio #5
ID : 5
Format : DTS
Format/Info : Digital Theater Systems
Mode : 16
Format settings, Endianness : Big
Codec ID : A_DTS
Duration : 1h 36mn
Bit rate mode : Constant
Bit rate : 1 509 Kbps
Channel(s) : 6 channels
Channel positions : Front: L C R, Side: L R, LFE
Sampling rate : 48.0 KHz
Bit depth : 24 bits
Compression mode : Lossy
Stream size : 1.02 GiB (7%)
Title : Original DTS 5.1ch 1510kbps
Language : English
Default : No
Forced : No
Text #6
ID : 6
Format : UTF-8
Codec ID : S_TEXT/UTF8
Codec ID/Info : UTF-8 Plain Text
Language : Russian
Default : No
Forced : No
Text #7
ID : 7
Format : UTF-8
Codec ID : S_TEXT/UTF8
Codec ID/Info : UTF-8 Plain Text
Language : English
Default : No
Forced : No
Menu
00:00:00.000 : en:00:00:00.000
00:02:17.596 : en:00:02:17.596
00:07:25.362 : en:00:07:25.362
00:13:15.128 : en:00:13:15.128
00:19:35.674 : en:00:19:35.674
00:23:37.333 : en:00:23:37.333
00:28:28.582 : en:00:28:28.582
00:35:05.228 : en:00:35:05.228
00:41:07.924 : en:00:41:07.924
00:45:59.548 : en:00:45:59.548
00:51:11.068 : en:00:51:11.068
00:54:56.210 : en:00:54:56.210
01:01:51.041 : en:01:01:51.041
01:06:54.344 : en:01:06:54.344
01:10:37.859 : en:01:10:37.859
01:15:48.502 : en:01:15:48.502
01:17:59.800 : en:01:17:59.800
01:20:42.379 : en:01:20:42.379
01:26:00.030 : en:01:26:00.030
01:33:55.088 : en:01:33:55.088

x264 log

x264 [info]: frame I:851 Avg QP:20.36 size:182481 PSNR Mean Y:46.36 U:50.73 V:51.50 Avg:47.30 Global:46.23
x264 [info]: frame P:34359 Avg QP:21.37 size:105846 PSNR Mean Y:45.54 U:50.58 V:51.30 Avg:46.49 Global:45.27
x264 [info]: frame B:104265 Avg QP:22.51 size: 78911 PSNR Mean Y:44.44 U:49.65 V:50.43 Avg:45.41 Global:44.05
x264 [info]: consecutive B-frames: 3.2% 6.3% 5.4% 37.9% 7.3% 27.9% 2.8% 7.4% 0.7% 0.5% 0.6%
x264 [info]: mb I I16..4: 8.0% 86.6% 5.5%
x264 [info]: mb P I16..4: 3.2% 45.0% 1.4% P16..4: 19.9% 18.2% 4.0% 0.2% 0.0% skip: 8.2%
x264 [info]: mb B I16..4: 1.2% 16.8% 0.2% B16..8: 30.2% 16.7% 2.7% direct:16.3% skip:15.9% L0:41.6% L1:40.6% BI:17.8%
x264 [info]: 8x8 transform intra:91.5% inter:73.0%
x264 [info]: direct mvs spatial:100.0% temporal:0.0%
x264 [info]: coded y,uvDC,uvAC intra: 88.2% 90.2% 64.2% inter: 53.5% 56.6% 5.4%
x264 [info]: i16 v,h,dc,p: 20% 14% 8% 59%
x264 [info]: i8 v,h,dc,ddl,ddr,vr,hd,vl,hu: 9% 8% 9% 9% 12% 11% 13% 12% 17%
x264 [info]: i4 v,h,dc,ddl,ddr,vr,hd,vl,hu: 12% 9% 5% 7% 14% 14% 15% 10% 14%
x264 [info]: i8c dc,h,v,p: 45% 25% 16% 13%
x264 [info]: Weighted P-Frames: Y:17.6% UV:14.7%
x264 [info]: ref P L0: 49.9% 11.0% 25.8% 11.7% 1.4% 0.1%
x264 [info]: ref B L0: 87.3% 10.2% 2.4%
x264 [info]: ref B L1: 93.6% 6.4%
x264 [info]: SSIM Mean Y:0.9772041 (16.421db)
x264 [info]: PSNR Mean Y:44.726 U:49.882 V:50.648 Avg:45.690 Global:44.330 kb/s:16529.74
x264 [info]: encoded 139475 frames, 3.850 fps, 16529.74 kb/s, 11463 MB
x264 [info]: ended at Sun Apr 28 19:39:42 2013
x264 [info]: encoding duration 10:03:44

[Цитировать]



Показать сообщения:    

Текущее время: 09-Дек 08:50

Часовой пояс: UTC + 3


Вы не можете начинать темы
Вы не можете отвечать на сообщения
Вы не можете редактировать свои сообщения
Вы не можете удалять свои сообщения
Вы не можете голосовать в опросах
Вы не можете прикреплять файлы к сообщениям
Вы не можете скачивать файлы

!ВНИМАНИЕ!
Сайт не предоставляет электронные версии произведений, а занимается лишь коллекционированием и каталогизацией ссылок, присылаемых и публикуемых на форуме нашими читателями. Если вы являетесь правообладателем какого-либо представленного материала и не желаете, чтобы ссылка на него находилась в нашем каталоге, свяжитесь с нами, и мы незамедлительно удалим ее. Файлы для обмена на трекере предоставлены пользователями сайта, и администрация не несет ответственности за их содержание. Просьба не заливать файлы, защищенные авторскими правами, а также файлы нелегального содержания!