[ Сегодня идет свободное скачивание без начисления Download ]


Статистика раздачи
Нет
 
   
 
Top  
 
 
--Поворот не туда 3 / Wrong Turn 3: Left for Dead«What You Don't See Will kill You»- -Год выпуска: 2009
Страна: США
Жанр: триллер
Продолжительность: 01:32:02
Перевод №1: Профессиональный (многоголосый закадровый)
Перевод №2: Одноголосый закадровый - Russianguy27)
Субтитры: Русские, Английские-Режиссер: Деклан О’Брайэн / Declan O'Brien
Сценарий: Коннор Джеймс Делани / Connor James Delaney, Алан Б. МакЭлрой / Alan B. McElroy
Продюсер: Джеффри Бич / Jeffery Beach, Филлип Дж. Рот / Phillip J. Roth, Джон Каппилла / John Cappilla, Эрик Фейг / Erik Feig, Роберт Кюльзер / Robert Kulzer
Оператор: Лоренцо Сенаторе / Lorenzo Senatore
Композитор: Клод Фойзи / Claude Foisy
В ролях: Том Фредерик / Tom Frederic (Nate), Джанет Монтгомери / Janet Montgomery (Alex), Джил Колирин / Gil Kolirin (Floyd), Кристиан Райан Контрерарс / Christian Ryan Contrerars (Willy Juarez), Джэйк Каррен / Jake Curran (Crawford), Том МакКэй / Tom McKay (Brandon), Чуки Венис / Chucky Venice (Walter), Тэмер Хассан / Tamer Hassan (Chavez), Джек Гордон / Jack Gordon (Trey), Луиз Клифф / Louise Cliffe (Sophie), Чарли Спид / Charley Speed (Brent), Борислав Петров / Borislav Petrov (Three Toes)-Описание: Группа людей оказывается загнанной в ловушку, в лесах Западной Вирджинии, где они вынуждены бороться за свои жизни против группы порочных, и ужасно уродливых каннибалов.-
Доп. информация: Исходник Поворот не туда 3 / Wrong Turn 3: Left for Dead (Деклан О’Брайэн / Declan O'Brien) [2009 г, США, ужасы, триллер, BDRemux, 1080p] MVO (Лицензия) + AVO (Russianguy27) + Original eng + Sub (rus, eng)-Качество: Blu-ray Rip 1080p
Формат: MKV
Видео: MPEG-4 AVC (H264), High Profile 4.1, 1916x1080, 23.976 fps, ~15000 kbps avg, bit/(pixel*frame) 0.302
Аудио №1: Russian: 48 kHz, AC3, 3/2 (L,C,R,l,r) + LFE ch, ~384.00 kbps avg //многоголосый закадровый
Аудио №2: Russian: 48 kHz, AC3, 3/2 (L,C,R,l,r) + LFE ch, ~448.00 kbps avg //одноголосый закадровый
Аудио №3: English: 48 kHz, DTS, 3/2 (L,C,R,l,r) + LFE ch, ~1510.00 kbps avg //original
Субтитры: Russian, English (Softsub SRT)
Навигация по главам: есть-

MediaInfo

L:\Wrong Turn III - Left for Dead [Поворот не туда 3 - Брошенный на смерть] (2009) 1916x1080 BDRip RusEngSubsChpt.mkv
General
Unique ID : 253569316165442084490134861864382053469 (0xBEC3AC8495AEB9DD8C6F8BACA4253C5D)
Complete name : L:\Wrong Turn III - Left for Dead [Поворот не туда 3 - Брошенный на смерть] (2009) 1916x1080 BDRip RusEngSubsChpt.mkv
Format : Matroska
Format version : Version 4 / Version 2
File size : 11.1 GiB
Duration : 1h 32mn
Overall bit rate : 17.3 Mbps
Movie name : -=RbM=-
Encoded date : UTC 2013-05-04 12:52:38
Writing application : mkvmerge v6.2.0 ('Promised Land') built on Apr 28 2013 12:22:01
Writing library : libebml v1.3.0 + libmatroska v1.4.0
Video #1
ID : 1
Format : AVC
Format/Info : Advanced Video Codec
Format profile : High@L4.1
Format settings, CABAC : Yes
Format settings, ReFrames : 4 frames
Codec ID : V_MPEG4/ISO/AVC
Duration : 1h 32mn
Bit rate : 15.0 Mbps
Width : 1 916 pixels
Height : 1 080 pixels
Display aspect ratio : 16:9
Frame rate mode : Constant
Frame rate : 23.976 fps
Color space : YUV
Chroma subsampling : 4:2:0
Bit depth : 8 bits
Scan type : Progressive
Bits/(Pixel*Frame) : 0.302
Stream size : 9.42 GiB (85%)
Title : 70% of the original
Writing library : x264 core 132 r2315+704+40 0b51699 tMod [8-bit@all X86_64]
Encoding settings : cabac=1 / ref=4 / deblock=1:-3:-2 / analyse=0x3:0x133 / me=umh / subme=11 / psy=1 / fade_compensate=0.00 / psy_rd=1.00:0.15 / mixed_ref=1 / me_range=32 / chroma_me=1 / trellis=2 / 8x8dct=1 / cqm=0 / deadzone=21,11 / fast_pskip=0 / chroma_qp_offset=-3 / threads=12 / lookahead_threads=3 / sliced_threads=0 / nr=0 / decimate=0 / interlaced=0 / bluray_compat=0 / constrained_intra=0 / fgo=0 / bframes=11 / b_pyramid=2 / b_adapt=2 / b_bias=0 / direct=3 / weightb=1 / open_gop=0 / weightp=2 / keyint=250 / keyint_min=23 / scenecut=40 / intra_refresh=0 / rc=2pass / mbtree=0 / bitrate=15000 / ratetol=1.0 / qcomp=0.60 / qpmin=0 / qpmax=69 / qpstep=4 / cplxblur=20.0 / qblur=0.5 / ip_ratio=1.25 / pb_ratio=1.15 / aq=1:0.80 / aq-sensitivity=10.00 / aq-factor=1.00:1.00:1.00 / aq2=0 / aq3=0
Language : English
Default : Yes
Forced : No
Color primaries : BT.709
Transfer characteristics : BT.709
Matrix coefficients : BT.709
Audio #2
ID : 2
Format : AC-3
Format/Info : Audio Coding 3
Mode extension : CM (complete main)
Format settings, Endianness : Big
Codec ID : A_AC3
Duration : 1h 32mn
Bit rate mode : Constant
Bit rate : 384 Kbps
Channel(s) : 6 channels
Channel positions : Front: L C R, Side: L R, LFE
Sampling rate : 48.0 KHz
Bit depth : 16 bits
Compression mode : Lossy
Stream size : 253 MiB (2%)
Title : MVO AC3 5.1ch 384kbps
Language : Russian
Default : Yes
Forced : No
Audio #3
ID : 3
Format : AC-3
Format/Info : Audio Coding 3
Mode extension : CM (complete main)
Format settings, Endianness : Big
Codec ID : A_AC3
Duration : 1h 32mn
Bit rate mode : Constant
Bit rate : 448 Kbps
Channel(s) : 6 channels
Channel positions : Front: L C R, Side: L R, LFE
Sampling rate : 48.0 KHz
Bit depth : 16 bits
Compression mode : Lossy
Stream size : 295 MiB (3%)
Title : VO AC3 5.1ch 448kbps (Russianguy27)
Language : Russian
Default : No
Forced : No
Audio #4
ID : 4
Format : DTS
Format/Info : Digital Theater Systems
Mode : 16
Format settings, Endianness : Big
Codec ID : A_DTS
Duration : 1h 32mn
Bit rate mode : Constant
Bit rate : 1 509 Kbps
Channel(s) : 6 channels
Channel positions : Front: L C R, Side: L R, LFE
Sampling rate : 48.0 KHz
Bit depth : 24 bits
Compression mode : Lossy
Stream size : 993 MiB (9%)
Title : Original DTS 5.1ch 1510kbps
Language : English
Default : No
Forced : No
Text #5
ID : 5
Format : UTF-8
Codec ID : S_TEXT/UTF8
Codec ID/Info : UTF-8 Plain Text
Language : Russian
Default : No
Forced : No
Text #6
ID : 6
Format : UTF-8
Codec ID : S_TEXT/UTF8
Codec ID/Info : UTF-8 Plain Text
Language : English
Default : No
Forced : No
Menu
00:00:00.000 : en:Chapter 1
00:02:57.010 : en:Chapter 2
00:06:51.703 : en:Chapter 3
00:12:04.265 : en:Chapter 4
00:18:38.701 : en:Chapter 5
00:25:49.923 : en:Chapter 6
00:31:45.445 : en:Chapter 7
00:37:47.015 : en:Chapter 8
00:44:26.956 : en:Chapter 9
00:52:17.134 : en:Chapter 10
00:59:18.263 : en:Chapter 11
01:03:15.208 : en:Chapter 12
01:05:48.027 : en:Chapter 13
01:10:08.704 : en:Chapter 14
01:17:32.606 : en:Chapter 15
01:28:20.629 : en:Chapter 16
01:32:02.100 : en:Chapter 17

x264 log

x264 [info]: frame I:687 Avg QP:19.77 size:168682 PSNR Mean Y:46.43 U:50.61 V:53.04 Avg:47.46 Global:46.76
x264 [info]: frame P:30414 Avg QP:21.13 size:102143 PSNR Mean Y:44.93 U:50.63 V:52.94 Avg:46.06 Global:45.34
x264 [info]: frame B:101303 Avg QP:22.01 size: 70315 PSNR Mean Y:43.80 U:48.65 V:51.48 Avg:44.93 Global:44.21
x264 [info]: consecutive B-frames: 2.1% 6.0% 4.2% 28.5% 9.5% 40.6% 3.1% 4.2% 0.6% 0.1% 0.5% 0.4%
x264 [info]: mb I I16..4: 3.9% 93.5% 2.7%
x264 [info]: mb P I16..4: 0.9% 36.3% 0.6% P16..4: 25.8% 27.2% 4.8% 0.2% 0.0% skip: 4.1%
x264 [info]: mb B I16..4: 0.2% 11.3% 0.1% B16..8: 39.5% 21.7% 2.7% direct:13.8% skip:10.7% L0:44.5% L1:42.2% BI:13.4%
x264 [info]: 8x8 transform intra:96.7% inter:61.7%
x264 [info]: direct mvs spatial:97.4% temporal:2.6%
x264 [info]: coded y,uvDC,uvAC intra: 95.6% 88.0% 44.5% inter: 57.8% 62.6% 8.2%
x264 [info]: i16 v,h,dc,p: 20% 23% 8% 48%
x264 [info]: i8 v,h,dc,ddl,ddr,vr,hd,vl,hu: 7% 7% 11% 10% 13% 12% 13% 12% 16%
x264 [info]: i4 v,h,dc,ddl,ddr,vr,hd,vl,hu: 9% 12% 4% 8% 14% 14% 14% 11% 13%
x264 [info]: i8c dc,h,v,p: 39% 30% 17% 14%
x264 [info]: Weighted P-Frames: Y:11.6% UV:8.5%
x264 [info]: ref P L0: 49.0% 9.7% 25.8% 13.9% 1.6% 0.1%
x264 [info]: ref B L0: 82.4% 14.2% 3.4%
x264 [info]: ref B L1: 90.0% 10.0%
x264 [info]: SSIM Mean Y:0.9666739 (14.772db)
x264 [info]: PSNR Mean Y:44.075 U:49.111 V:51.827 Avg:45.205 Global:44.459 kb/s:14987.20
x264 [info]: encoded 132404 frames, 4.320 fps, 14987.20 kb/s, 9866.3 MB
x264 [info]: ended at Sat May 04 17:10:22 2013
x264 [info]: encoding duration 8:30:51

[Цитировать]



Показать сообщения:    

Текущее время: 10-Дек 15:48

Часовой пояс: UTC + 3


Вы не можете начинать темы
Вы не можете отвечать на сообщения
Вы не можете редактировать свои сообщения
Вы не можете удалять свои сообщения
Вы не можете голосовать в опросах
Вы не можете прикреплять файлы к сообщениям
Вы не можете скачивать файлы

!ВНИМАНИЕ!
Сайт не предоставляет электронные версии произведений, а занимается лишь коллекционированием и каталогизацией ссылок, присылаемых и публикуемых на форуме нашими читателями. Если вы являетесь правообладателем какого-либо представленного материала и не желаете, чтобы ссылка на него находилась в нашем каталоге, свяжитесь с нами, и мы незамедлительно удалим ее. Файлы для обмена на трекере предоставлены пользователями сайта, и администрация не несет ответственности за их содержание. Просьба не заливать файлы, защищенные авторскими правами, а также файлы нелегального содержания!