[ Сегодня идет свободное скачивание без начисления Download ]


Статистика раздачи
Нет
 
   
 
Top  
 
 
Поворот не туда 5: Кровное родство / Wrong Turn 5: Bloodlines Unrated«Страх поглотит тебя» / «Fear Will Consume You» Год выпуска: 2012
Страна: США
Жанр: ужасы, триллер
Продолжительность: 01:30:48
Перевод 1: Профессиональный (многоголосый закадровый)
Перевод 2: Одноголосый закадровый den904
Оригинальная аудиодорожка: Английская
Субтитры: Русские (askype), английские (Full, Full SDH, Full SDH Colored)
Студия: 20th Century Fox Home Entertainment, Constantin Film Produktion, Summit Entertainment
Режиссёр: Деклан О’Брайэн / Declan O'Brien
В ролях: Даг Брэдли, Камилла Арфведсон, Саймон Джинти, Роксанна МакКи, Оливер Хоар, Кайл Редмонт-Джонс, Эми Леннокс, Дункан Уисби, Радослав Парванов, Джордж Карлуковский, Борислав Илиев, Питер Брук, Финн Джонс, Эндрю Боун, Рози Холден, Гарри Аничкин, Рени Джонсон, Велизар Пеев, Эмилиа Клэйн, Свилен Чолаков и др.
Описание: Маленький городок в Западной Вирджинии проводит ежегодный фестиваль «Горный человек», посвящённый Хэллоуину. Туда направляется группа студентов колледжа, однако они не подозревают, что шумная костюмированная вечеринка с музыкой и выпивкой обернётся для них кровавым кошмаром - на фестиваль направляется семья горных каннибалов.
  • Кинопоиск
  • IMDB
  • Blu-ray.com
  • Сэмпл
    Качество: BDRemux 1080p
    Контейнер: MKV
    Видео кодек: H.264
    Аудио кодек: AC3 / DTS-HD Master Audio
    Видео: MPEG-4 AVC Video / ~37.3 Mbps avg / 1920x1080p / 23,976 fps / 16:9 / 0.749 bit/pix / High@L4.1
    Аудио 1: Русский / AC3 / 384 Kbps / 5.1 / 48 kHz / 16-bit Профессиональный (многоголосый закадровый) Отдельно
    Аудио 2: Русский / DTS-HD Master Audio / 3561 Kbps / 5.1 / 48 kHz / 24-bit (DTS Core: 5.1 / 48 kHz / 1510 Kbps / 24-bit) Одноголосый закадровый den904 Отдельно
    Аудио 3: English / DTS-HD Master Audio / 3538 Kbps / 5.1 / 48 kHz / 24-bit (DTS Core: 5.1 / 48 kHz / 1510 Kbps / 24-bit) Оригинал Отдельно
    Навигация по главам: да
Дорожка №2 получена наложением чистого голоса на центральный канал английского DTS-HD MA.

MediaInfo

Z:\Поворот не туда 5 - Кровное родство (Wrong Turn 5 - Bloodlines) 2012, США, ужасы, триллер, Unrated BDRemux 1080p GORENOISE.mkv
General
Unique ID : 173237802033105677994418209924682565646 (0x82546315490C7F7297CB6CCB12A7480E)
Complete name : Z:\Rutracker.org\Поворот не туда 5 - Кровное родство (Wrong Turn 5 - Bloodlines) 2012, США, ужасы, триллер, Unrated BDRemux 1080p GORENOISE.mkv
Format : Matroska
Format version : Version 2
File size : 26.4 GiB
Duration : 1h 30mn
Overall bit rate mode : Variable
Overall bit rate : 41.6 Mbps
Movie name : GORENOISE
Encoded date : UTC 2012-12-07 17:08:12
Writing application : mkvmerge v5.8.0 ('No Sleep / Pillow') built on Sep 2 2012 15:37:04
Writing library : libebml v1.2.3 + libmatroska v1.3.0
Video #1
ID : 1
Format : AVC
Format/Info : Advanced Video Codec
Format profile : High@L4.1
Format settings, CABAC : Yes
Format settings, ReFrames : 2 frames
Codec ID : V_MPEG4/ISO/AVC
Duration : 1h 30mn
Bit rate mode : Variable
Bit rate : 37.3 Mbps
Width : 1 920 pixels
Height : 1 080 pixels
Display aspect ratio : 16:9
Frame rate mode : Constant
Frame rate : 23.976 fps
Color space : YUV
Chroma subsampling : 4:2:0
Bit depth : 8 bits
Scan type : Progressive
Bits/(Pixel*Frame) : 0.749
Stream size : 23.6 GiB (90%)
Title : GORENOISE
Language : English
Default : Yes
Forced : No
Audio #2
ID : 2
Format : AC-3
Format/Info : Audio Coding 3
Mode extension : CM (complete main)
Format settings, Endianness : Big
Codec ID : A_AC3
Duration : 1h 30mn
Bit rate mode : Constant
Bit rate : 384 Kbps
Channel(s) : 6 channels
Channel positions : Front: L C R, Side: L R, LFE
Sampling rate : 48.0 KHz
Bit depth : 16 bits
Compression mode : Lossy
Stream size : 249 MiB (1%)
Title : Профессиональный (многоголосый закадровый)
Language : Russian
Default : Yes
Forced : No
Audio #3
ID : 3
Format : DTS
Format/Info : Digital Theater Systems
Format profile : MA / Core
Codec ID : A_DTS
Duration : 1h 30mn
Bit rate mode : Variable
Bit rate : 1 561 Kbps / 1 510 Kbps
Channel(s) : 6 channels
Channel positions : Front: L C R, Side: L R, LFE
Sampling rate : 48.0 KHz
Bit depth : 24 bits
Compression mode : Lossless / Lossy
Title : Любительский (одноголосый закадровый) den904
Language : Russian
Default : No
Forced : No
Audio #4
ID : 4
Format : DTS
Format/Info : Digital Theater Systems
Format profile : MA / Core
Codec ID : A_DTS
Duration : 1h 30mn
Bit rate mode : Variable
Bit rate : 1 561 Kbps / 1 510 Kbps
Channel(s) : 6 channels
Channel positions : Front: L C R, Side: L R, LFE
Sampling rate : 48.0 KHz
Bit depth : 24 bits
Compression mode : Lossless / Lossy
Title : Оригинал
Language : English
Default : No
Forced : No
Text #5
ID : 5
Format : UTF-8
Codec ID : S_TEXT/UTF8
Codec ID/Info : UTF-8 Plain Text
Title : askype
Language : Russian
Default : No
Forced : No
Text #6
ID : 6
Format : UTF-8
Codec ID : S_TEXT/UTF8
Codec ID/Info : UTF-8 Plain Text
Title : Full
Language : English
Default : No
Forced : No
Text #7
ID : 7
Format : UTF-8
Codec ID : S_TEXT/UTF8
Codec ID/Info : UTF-8 Plain Text
Title : Full SDH
Language : English
Default : No
Forced : No
Text #8
ID : 8
Format : UTF-8
Codec ID : S_TEXT/UTF8
Codec ID/Info : UTF-8 Plain Text
Title : Full SDH Colored
Language : English
Default : No
Forced : No
Menu
00:00:00.000 : en:
00:03:35.006 : en:
00:06:41.109 : en:
00:09:45.293 : en:
00:13:38.526 : en:
00:16:56.473 : en:
00:18:38.909 : en:
00:22:32.893 : en:
00:26:03.436 : en:
00:29:27.223 : en:
00:34:49.837 : en:
00:39:19.440 : en:
00:44:08.645 : en:
00:48:06.216 : en:
00:53:11.813 : en:
00:59:35.196 : en:
01:03:13.122 : en:
01:06:56.303 : en:
01:09:44.638 : en:
01:12:32.639 : en:
01:17:43.700 : en:
01:19:31.767 : en:
01:20:46.842 : en:
01:26:21.801 : en:

Полноразмерный постер

[Цитировать]



Показать сообщения:    

Текущее время: 20-Фев 20:51

Часовой пояс: UTC + 3


Вы не можете начинать темы
Вы не можете отвечать на сообщения
Вы не можете редактировать свои сообщения
Вы не можете удалять свои сообщения
Вы не можете голосовать в опросах
Вы не можете прикреплять файлы к сообщениям
Вы не можете скачивать файлы

!ВНИМАНИЕ!
Сайт не предоставляет электронные версии произведений, а занимается лишь коллекционированием и каталогизацией ссылок, присылаемых и публикуемых на форуме нашими читателями. Если вы являетесь правообладателем какого-либо представленного материала и не желаете, чтобы ссылка на него находилась в нашем каталоге, свяжитесь с нами, и мы незамедлительно удалим ее. Файлы для обмена на трекере предоставлены пользователями сайта, и администрация не несет ответственности за их содержание. Просьба не заливать файлы, защищенные авторскими правами, а также файлы нелегального содержания!