[ Сегодня идет свободное скачивание без начисления Download ]


Статистика раздачи
Нет
 
   
 
Top  
 
 
-Летучий отряд Скотланд-Ярда / The Sweeney (2012) BDRip- Русское название: Летучий отряд Скотланд-Ярда
Оригинальное название: The Sweeney
Год выпуска: 2012
Производство: Великобритания, Vertigo Films, Embargo Films
Жанр: Боевик, Драма, Криминал
Перевод: Многоголосый закадровый, профессиональный
Озвучка / Автор перевода: Лицензия
Субтитры: Вшитые отключаемые
Язык субтитров: Английский
Дата мировой премьеры: 1 августа 2012
Режиссер: Ник Лав / Nick Love
Актеры: Рэй Уинстон, Бен Дрю, Хейли Этвелл, Дамиан Льюис, Аллен Лич, Пол Андерсон, Алан Форд, Стивен Макинтош, Стивен Вэддингтон, Кара Тойнтон, Аллан Кордунер, Джесс Лиодин, Ли Крэвен, Джон Дагган, Кэролайн Чикези, Джеймс Майкл Ранкин, Ник Неверн, Чонради Култап, Крис Коулин, Ли Уитлок, Ронни Фокс, Джеймс Коттер, Джон Адам Фриман, Пол Блэкуелл, Эмма Флетчер, Майкл Уилдман
Описание фильма:
Английская полиция прикладывает максимум усилий для того, чтобы преступники были наказаны. Но детектив Джек Риген борется с преступностью по-своему: грязными, нелегальными, жестокими методами…

Продолжительность: 01:52:30
Качество видео: BDRip 1080p
Видеокодек: MPEG-4 AVC/H.264
Видео: H264, 12.7 Мбит/с, 1920x800, 23.976 кадр/с
Аудио #1: Русский: AC3, 448 кбит/c, 5.1, 48 kHz, 16 bit
Аудио #2: Английский: DTS, 1536 кбит/c, 5.1, 48 kHz, 24 bit
Сохранены оригинальные чаптеры как на Blu-Ray

Рецензия, отзыв о фильме:

Мир держится, на таких как они…
Криминальный триллер с элементами экшена.
Фильм рассказывает о работе полицейского отдела, именуемого Летучий отряд, они ведут и практикуют жесткие методы, применительно к бандитам и преступникам, действующие по девизу — управляй и подавляй.
Можно сказать, что режиссер данного фильма — Ник Лав, наряду с Гаем Риччи, отвечает за криминальное британское кино, на котором он уже собаку съел и знает всю его подноготную, сняв такие фильмы, как: Фанаты (Фабрика Футбола), Банда (Фирма) и Вне закона.
Фильм выдержан в лучших традициях жанра полицейского и криминального кино, все атрибуты которого тут присутствуют сполна, это погони, преследование, перестрелки, ограбления, слежка, разборки — все то, за что мы любим этот жанр.
Стоит отметить и актерский состав данной ленты, так как тут задействованы британские актеры разного поколения, от матерого Рэя Уинстона и Дамиана Льюиса, до молодого и начинающего свое восхождение Бена Дрю (известного в музыкальных кругах, как Plan B).
Рекомендую к просмотру любителям данного жанра.

MediaInfo:

Общее
Уникальный идентификатор : 208612087215223727517696253035268735164 (0x9CF139FF5ECE656C8EE2FDD8754F00BC)
Полное имя : D:\Video\The.Sweeney.2012.1080p.BluRay.DTS.x264.ac3.dts.Rus.Eng.mkv
Формат : Matroska
Версия формата : Version 2
Размер файла : 11,8 Гбайт
Продолжительность : 1 ч. 52 м.
Общий поток : 15,0 Мбит/сек
Название фильма : Release from VarMkn
Дата кодирования : UTC 2013-06-12 22:35:29
Программа кодирования : mkvmerge v5.4.0 ('Piper') built on Mar 10 2012 13:34:39
Библиотека кодирования : libebml v1.2.3 + libmatroska v1.3.0
Видео
Идентификатор : 1
Формат : AVC
Формат/Информация : Advanced Video Codec
Профиль формата : High@L4.1
Параметр CABAC формата : Да
Параметр ReFrames формата : 5 кадров
Идентификатор кодека : V_MPEG4/ISO/AVC
Продолжительность : 1 ч. 52 м.
Битрейт : 12,7 Мбит/сек
Ширина : 1920 пикселей
Высота : 800 пикселей
Соотношение сторон : 2,40:1
Частота кадров : 23,976 кадра/сек
Цветовое пространство : YUV
Субдискретизация насыщенности : 4:2:0
Битовая глубина : 8 бит
Тип развёртки : Прогрессивная
Бит/(Пиксели*Кадры) : 0.346
Размер потока : 10,0 Гбайт (85%)
Библиотека кодирования : x264 core 129 r2230kMod 1cffe9f
Настройки программы : cabac=1 / ref=5 / deblock=1:-3:-3 / analyse=0x3:0x133 / me=umh / subme=10 / psy=1 / fade_compensate=0.00 / psy_rd=1.15:0.00 / mixed_ref=1 / me_range=24 / chroma_me=1 / trellis=2 / 8x8dct=1 / cqm=0 / deadzone=21,11 / fast_pskip=0 / chroma_qp_offset=-2 / threads=6 / lookahead_threads=1 / sliced_threads=0 / nr=0 / decimate=0 / interlaced=0 / bluray_compat=0 / constrained_intra=0 / bframes=8 / b_pyramid=2 / b_adapt=2 / b_bias=0 / direct=3 / weightb=1 / open_gop=0 / weightp=2 / keyint=250 / keyint_min=23 / scenecut=40 / intra_refresh=0 / rc_lookahead=40 / rc=crf / mbtree=1 / crf=17.0000 / qcomp=0.75 / qpmin=0 / qpmax=69 / qpstep=4 / ip_ratio=1.20 / aq=2:0.90
Default : Нет
Forced : Нет
Аудио #1
Идентификатор : 2
Формат : AC-3
Формат/Информация : Audio Coding 3
Расширение режима : CM (complete main)
Идентификатор кодека : A_AC3
Продолжительность : 1 ч. 52 м.
Вид битрейта : Постоянный
Битрейт : 448 Кбит/сек
Каналы : 6 каналов
Расположение каналов : Front: L C R, Side: L R, LFE
Частота : 48,0 КГц
Битовая глубина : 16 бит
Метод сжатия : С потерями
Размер потока : 361 Мбайт (3%)
Заголовок : DD 5.1 @ 448 - MVO Russian
Язык : Russian
Default : Нет
Forced : Нет
Аудио #2
Идентификатор : 3
Формат : DTS
Формат/Информация : Digital Theater Systems
Идентификатор кодека : A_DTS
Продолжительность : 1 ч. 52 м.
Вид битрейта : Постоянный
Битрейт : 1510 Кбит/сек
Каналы : 6 каналов
Расположение каналов : Front: L C R, Side: L R, LFE
Частота : 48,0 КГц
Битовая глубина : 24 бит
Метод сжатия : С потерями
Размер потока : 1,19 Гбайт (10%)
Заголовок : DTS 1536 @ DD 5.1 - MVO
Язык : English
Default : Нет
Forced : Нет
Текст #1
Идентификатор : 4
Формат : UTF-8
Идентификатор кодека : S_TEXT/UTF8
Идентификатор кодека/Информация : UTF-8 Plain Text
Заголовок : Sub-Full
Язык : English
Default : Нет
Forced : Нет
Текст #2
Идентификатор : 5
Формат : UTF-8
Идентификатор кодека : S_TEXT/UTF8
Идентификатор кодека/Информация : UTF-8 Plain Text
Заголовок : Sub-SDH
Язык : English
Default : Нет
Forced : Нет
Меню
00:00:00.000 : en:00:00:00.000
00:02:30.484 : en:00:02:30.484
00:08:25.380 : en:00:08:25.380
00:14:03.801 : en:00:14:03.801
00:18:37.199 : en:00:18:37.199
00:23:48.802 : en:00:23:48.802
00:30:36.543 : en:00:30:36.543
00:39:29.701 : en:00:39:29.701
00:51:49.440 : en:00:51:49.440
00:56:04.820 : en:00:56:04.820
01:02:58.108 : en:01:02:58.108
01:06:33.198 : en:01:06:33.198
01:13:10.136 : en:01:13:10.136
01:16:45.851 : en:01:16:45.851
01:22:14.012 : en:01:22:14.012
01:26:23.929 : en:01:26:23.929
01:29:36.538 : en:01:29:36.538
01:35:08.369 : en:01:35:08.369
01:41:53.399 : en:01:41:53.399
01:49:25.017 : en:01:49:25.017
Скриншоты:


Время раздачи: с 10:00 до 20:00 (GMT+2) - до 10 скачавших

[Цитировать]



Показать сообщения:    

Текущее время: 18-Янв 13:22

Часовой пояс: UTC + 3


Вы не можете начинать темы
Вы не можете отвечать на сообщения
Вы не можете редактировать свои сообщения
Вы не можете удалять свои сообщения
Вы не можете голосовать в опросах
Вы не можете прикреплять файлы к сообщениям
Вы не можете скачивать файлы

!ВНИМАНИЕ!
Сайт не предоставляет электронные версии произведений, а занимается лишь коллекционированием и каталогизацией ссылок, присылаемых и публикуемых на форуме нашими читателями. Если вы являетесь правообладателем какого-либо представленного материала и не желаете, чтобы ссылка на него находилась в нашем каталоге, свяжитесь с нами, и мы незамедлительно удалим ее. Файлы для обмена на трекере предоставлены пользователями сайта, и администрация не несет ответственности за их содержание. Просьба не заливать файлы, защищенные авторскими правами, а также файлы нелегального содержания!