[ Сегодня идет свободное скачивание без начисления Download ]


Статистика раздачи
Нет
 
   
 
Top  
 
 
-Неспящие в Сиэтле / Sleepless in Seattle (1993) BDRip--«Не проспите свое счастье»-
Русское название: Неспящие в Сиэтле
Оригинальное название: Sleepless in Seattle
Год выпуска: 1993
Производство: США
Жанр: Драма, Мелодрама, Комедия--Описание фильма:
Однажды ночью в эфир радиостанции дозвонился мальчик, который искал маму для себя и жену для папы. На зов ребенка откликается множество женщин, в том числе и Эни, которая живет на другом конце материка, но после передачи начинает переписку с Джоном, отцом ребенка. Для того, чтобы встретиться, этим двоим придется преодолеть непростые преграды, но любовь все равно победит, и каждый обретет счастье...--Режиссер: Нора Эфрон
Актеры: Том Хэнкс, Мег Райан, Билл Пуллман, Росс Мэлинджер, Рози О`Доннелл, Гэби Хоффманн, Виктор Гарбер, Рита Уилсон, Барбара Гэррик, Кэри Лоуэлл, Дэвид Хайд Пирс, Дэна Айви, Роб Райнер, Том Риис Фаррелл, Ле Кланше Ду Рэнд, Кевин О'Моррисон, Валери Райт и др.
Продолжительность: 01:45:05
Перевод: Профессиональный (полное дублирование), Профессиональный (многоголосый закадровый), Авторский (одноголосый закадровый)
Язык субтитров: Русский, английский
Вид субтитров: Вшитые отключаемые

Дата мировой премьеры: 25 июня 1993
Дата выхода Blu-Ray релиза: 4 июня 2013, «Columbia/Sony»-Видеокодек: MPEG-4 AVC/H.264
Битрейт видео: ~10000 Кбит/сек
Размер кадра: 1920x1038
Качество видео: BDRip 1080p
Аудиокодек: AC3 , DTS
Аудио #1: Русский ( AC3 / 2.0 / 48 kHz / 192 kbps ) - Профессиональный (дублированный)
Аудио #2: Русский ( AC3 / 2.0 / 48 kHz / 192 kbps ) - Профессиональный (многоголосый)
Аудио #3: Русский ( AC3 / 2.0 / 48 kHz / 192 kbps ) - Авторский (одноголосый) - Михалёв
Аудио #4: Английский ( DTS / 5.1 / 48 kHz / 1510 kbps )
-

MediaInfo:

Общее
Уникальный идентификатор : 175551539987703665595927927646610885130 (0x8411FF2BF6580CF19DDE79DEEB8D8A0A)
Полное имя : Неспящие в Сиэтле _ Sleepless in Seattle.1993.BDRip.1080p.mkv
Формат : Matroska
Версия формата : Version 2
Размер файла : 8,87 Гбайт
Продолжительность : 1 ч. 45 м.
Общий поток : 12,1 Мбит/сек
Название фильма : MediaClub-kaspr
Дата кодирования : UTC 2013-06-10 10:30:59
Программа кодирования : mkvmerge v5.7.0 ('The Whirlwind') built on Aug 7 2012 14:11:40
Библиотека кодирования : libebml v1.2.3 + libmatroska v1.3.0
Видео
Идентификатор : 1
Формат : AVC
Формат/Информация : Advanced Video Codec
Профиль формата : High@L4.1
Параметр CABAC формата : Да
Параметр ReFrames формата : 4 кадра
Идентификатор кодека : V_MPEG4/ISO/AVC
Продолжительность : 1 ч. 45 м.
Битрейт : 10000 Кбит/сек
Ширина : 1920 пикселей
Высота : 1038 пикселей
Соотношение сторон : 1,85:1
Режим частоты кадров : Постоянный
Частота кадров : 23,976 кадра/сек
Цветовое пространство : YUV
Субдискретизация насыщенности : 4:2:0
Битовая глубина : 8 бит
Тип развёртки : Прогрессивная
Бит/(Пиксели*Кадры) : 0.209
Размер потока : 7,16 Гбайт (81%)
Заголовок : MediaClub-kaspr
Библиотека кодирования : x264 core 133 r2334 a3ac64b
Настройки программы : cabac=1 / ref=4 / deblock=1:-3:-3 / analyse=0x3:0x133 / me=umh / subme=11 / psy=1 / psy_rd=1.00:0.10 / mixed_ref=1 / me_range=32 / chroma_me=1 / trellis=2 / 8x8dct=1 / cqm=0 / deadzone=21,11 / fast_pskip=0 / chroma_qp_offset=-3 / threads=12 / lookahead_threads=1 / sliced_threads=0 / nr=0 / decimate=0 / interlaced=0 / bluray_compat=0 / constrained_intra=0 / bframes=6 / b_pyramid=2 / b_adapt=2 / b_bias=0 / direct=3 / weightb=1 / open_gop=0 / weightp=2 / keyint=240 / keyint_min=22 / scenecut=40 / intra_refresh=0 / rc=2pass / mbtree=0 / bitrate=10000 / ratetol=1.0 / qcomp=0.60 / qpmin=0 / qpmax=69 / qpstep=4 / cplxblur=20.0 / qblur=0.5 / ip_ratio=1.40 / pb_ratio=1.30 / aq=1:1.00
Default : Да
Forced : Нет
Аудио #1
Идентификатор : 2
Формат : AC-3
Формат/Информация : Audio Coding 3
Профиль формата : Dolby Digital
Расширение режима : CM (complete main)
Параметр Endianness формата : Big
Идентификатор кодека : A_AC3
Продолжительность : 1 ч. 45 м.
Вид битрейта : Постоянный
Битрейт : 192 Кбит/сек
Каналы : 2 канала
Расположение каналов : Front: L R
Частота : 48,0 КГц
Битовая глубина : 16 бит
Метод сжатия : С потерями
Размер потока : 144 Мбайт (2%)
Заголовок : Дубляж
Язык : Russian
Default : Да
Forced : Да
Аудио #2
Идентификатор : 3
Формат : AC-3
Формат/Информация : Audio Coding 3
Расширение режима : CM (complete main)
Параметр Endianness формата : Big
Идентификатор кодека : A_AC3
Продолжительность : 1 ч. 45 м.
Вид битрейта : Постоянный
Битрейт : 192 Кбит/сек
Каналы : 2 канала
Расположение каналов : Front: L R
Частота : 48,0 КГц
Битовая глубина : 16 бит
Метод сжатия : С потерями
Размер потока : 144 Мбайт (2%)
Заголовок : MVO
Язык : Russian
Default : Нет
Forced : Нет
Аудио #3
Идентификатор : 4
Формат : AC-3
Формат/Информация : Audio Coding 3
Расширение режима : CM (complete main)
Параметр Endianness формата : Big
Идентификатор кодека : A_AC3
Продолжительность : 1 ч. 45 м.
Вид битрейта : Постоянный
Битрейт : 192 Кбит/сек
Каналы : 2 канала
Расположение каналов : Front: L R
Частота : 48,0 КГц
Битовая глубина : 16 бит
Метод сжатия : С потерями
Размер потока : 144 Мбайт (2%)
Заголовок : Mihalev
Язык : Russian
Default : Нет
Forced : Нет
Аудио #4
Идентификатор : 5
Формат : DTS
Формат/Информация : Digital Theater Systems
Идентификатор кодека : A_DTS
Продолжительность : 1 ч. 45 м.
Вид битрейта : Постоянный
Битрейт : 1510 Кбит/сек
Каналы : 6 каналов
Расположение каналов : Front: L C R, Side: L R, LFE
Частота : 48,0 КГц
Битовая глубина : 24 бит
Метод сжатия : С потерями
Размер потока : 1,11 Гбайт (12%)
Заголовок : Оригинал
Язык : English
Default : Нет
Forced : Нет
Текст #1
Идентификатор : 6
Формат : UTF-8
Идентификатор кодека : S_TEXT/UTF8
Идентификатор кодека/Информация : UTF-8 Plain Text
Язык : Russian
Default : Нет
Forced : Нет
Текст #2
Идентификатор : 7
Формат : UTF-8
Идентификатор кодека : S_TEXT/UTF8
Идентификатор кодека/Информация : UTF-8 Plain Text
Язык : English
Default : Нет
Forced : Нет
Меню
00:00:00.000 : en:Chapter 01
00:05:27.910 : en:Chapter 02
00:12:45.347 : en:Chapter 03
00:22:24.551 : en:Chapter 04
00:26:26.293 : en:Chapter 05
00:31:25.008 : en:Chapter 06
00:34:13.843 : en:Chapter 07
00:41:35.618 : en:Chapter 08
00:44:51.814 : en:Chapter 09
00:53:19.237 : en:Chapter 10
00:59:09.879 : en:Chapter 11
01:04:01.587 : en:Chapter 12
01:12:36.560 : en:Chapter 13
01:20:58.311 : en:Chapter 14
01:28:19.794 : en:Chapter 15
01:33:30.813 : en:Chapter 16
-Скриншоты:



Время раздачи: с 10:00 до 23:00 ежедневно

[Цитировать]



Показать сообщения:    

Текущее время: 09-Дек 08:55

Часовой пояс: UTC + 3


Вы не можете начинать темы
Вы не можете отвечать на сообщения
Вы не можете редактировать свои сообщения
Вы не можете удалять свои сообщения
Вы не можете голосовать в опросах
Вы не можете прикреплять файлы к сообщениям
Вы не можете скачивать файлы

!ВНИМАНИЕ!
Сайт не предоставляет электронные версии произведений, а занимается лишь коллекционированием и каталогизацией ссылок, присылаемых и публикуемых на форуме нашими читателями. Если вы являетесь правообладателем какого-либо представленного материала и не желаете, чтобы ссылка на него находилась в нашем каталоге, свяжитесь с нами, и мы незамедлительно удалим ее. Файлы для обмена на трекере предоставлены пользователями сайта, и администрация не несет ответственности за их содержание. Просьба не заливать файлы, защищенные авторскими правами, а также файлы нелегального содержания!