[ Сегодня идет свободное скачивание без начисления Download ]


Статистика раздачи
Нет
 
   
 
Top  
 
 
-Тревожный вызов / The Call (2013) BDRemux-«Из 188 миллионов звонков, этот предназначался персонально ей»- Русское название: Тревожный вызов
Оригинальное название: The Call
Год выпуска: 2013
Производство: США / Troika Pictures, WWE Studios, Emergency Films
Жанр: Триллер
Перевод: Дублированный
Субтитры: Вшитые отключаемые
Язык субтитров: Английский (полные, SDH, комментарий)
Дата мировой премьеры: 15 марта 2013
Дата российской премьеры: 14 марта 2013, «Top Film Distribution»
Дата выхода DVD релиза: 13 июня 2013, «Новый Диск», «New Dream media»
Режиссер: Брэд Андерсон
Продюсер: Брэдли Галло, Джеффри Грауп, Майкл А. Хелфант
Актеры: Холли Берри, Эбигейл Бреслин, Моррис Честнат, Майкл Эклунд, Майкл Империоли, Жустина Мачадо, Хосе Суньига, Рома Маффиа, Эви Томпсон
Описание фильма:
Фильм расскажет про оператора колл-центра 911, куда поступает звонок от девочки-подростка, ставшей жертвой маньяка. Героине предстоит столкнуться со своими кошмарами, чтобы спасти девушку.

Продолжительность: 01:34:13
Качество видео: BDRemux 1080p-Видеокодек: MPEG-4 AVC/H.264
Битрейт видео: ~25581 kbps
Размер кадра: 1920 x 1080
Аудио 1: Русский, AC3 5.1, 448 kbps, 48 kHz
Аудио 2: Английский, DTS-HD MA 5.1, 3583 kbps, 48 kHz (Оригинал)
Аудио 3: Английский, AC3 5.1, 640 kbps, 48 kHz (Descriptive)
Аудио 4: Английский, AC3 2.0, 192 kbps, 48 kHz (Комментарий)-Сэмпл: Скачать-

Знаете ли вы, что...

Холли Берри была взята на главную роль, когда режиссером фильма еще был Джоэл Шумахер. Затем Шумахер покинул проект, и на его место пришел Брэд Андерсон. Берри была вынуждена отказаться от своей роли из-за несогласованности расписаний съемок, но после переноса даты выхода фильма она все же вернулась.
-

MediaInfo:

Общее
Уникальный идентификатор : 234914006195904908713571897741581395156 (0xB0BACAB93A8E5C65906A557CDBD2A4D4)
Полное имя : D:\Films\The.Call.2013.1080p.BDRemux.mkv
Формат : Matroska
Версия формата : Version 2
Размер файла : 20,1 Гбайт
Продолжительность : 1 ч. 34 м.
Режим общего битрейта : Переменный
Общий поток : 30,5 Мбит/сек
Дата кодирования : UTC 2013-06-12 12:31:35
Программа кодирования : mkvmerge v5.2.0 ('I can't explain') built on Dec 18 2011 18:12:03
Библиотека кодирования : libebml v1.2.3 + libmatroska v1.3.0
Видео
Идентификатор : 1
Формат : AVC
Формат/Информация : Advanced Video Codec
Профиль формата : High@L4.1
Параметр CABAC формата : Да
Параметр ReFrames формата : 2 кадра
Параметр GOP формата : M=1, N=10
Идентификатор кодека : V_MPEG4/ISO/AVC
Продолжительность : 1 ч. 34 м.
Вид битрейта : Переменный
Ширина : 1920 пикселей
Высота : 1080 пикселей
Соотношение сторон : 16:9
Режим частоты кадров : Постоянный
Частота кадров : 23,976 кадра/сек
Цветовое пространство : YUV
Субдискретизация насыщенности : 4:2:0
Битовая глубина : 8 бит
Тип развёртки : Прогрессивная
Язык : English
Default : Да
Forced : Нет
Аудио #1
Идентификатор : 2
Формат : AC-3
Формат/Информация : Audio Coding 3
Расширение режима : CM (complete main)
Параметр Endianness формата : Big
Идентификатор кодека : A_AC3
Продолжительность : 1 ч. 34 м.
Вид битрейта : Постоянный
Битрейт : 448 Кбит/сек
Каналы : 6 каналов
Расположение каналов : Front: L C R, Side: L R, LFE
Частота : 48,0 КГц
Битовая глубина : 16 бит
Метод сжатия : С потерями
Размер потока : 302 Мбайт (1%)
Заголовок : DUB
Язык : Russian
Default : Да
Forced : Нет
Аудио #2
Идентификатор : 3
Формат : DTS
Формат/Информация : Digital Theater Systems
Профиль формата : MA / Core
Режим : 16
Параметр Endianness формата : Big
Идентификатор кодека : A_DTS
Продолжительность : 1 ч. 34 м.
Вид битрейта : Переменный
Битрейт : Неизвестно / 1509 Кбит/сек
Каналы : 6 каналов
Расположение каналов : Front: L C R, Side: L R, LFE
Частота : 48,0 КГц
Битовая глубина : 24 бит
Метод сжатия : Без потерь / Lossy
Заголовок : Lossless
Язык : English
Default : Нет
Forced : Нет
Аудио #3
Идентификатор : 4
Формат : AC-3
Формат/Информация : Audio Coding 3
Расширение режима : CM (complete main)
Параметр Endianness формата : Big
Идентификатор кодека : A_AC3
Продолжительность : 1 ч. 34 м.
Вид битрейта : Постоянный
Битрейт : 640 Кбит/сек
Каналы : 6 каналов
Расположение каналов : Front: L C R, Side: L R, LFE
Частота : 48,0 КГц
Битовая глубина : 16 бит
Метод сжатия : С потерями
Размер потока : 431 Мбайт (2%)
Заголовок : Descriptive
Язык : English
Default : Нет
Forced : Нет
Аудио #4
Идентификатор : 5
Формат : AC-3
Формат/Информация : Audio Coding 3
Профиль формата : Dolby Digital
Расширение режима : CM (complete main)
Параметр Endianness формата : Big
Идентификатор кодека : A_AC3
Продолжительность : 1 ч. 34 м.
Вид битрейта : Постоянный
Битрейт : 192 Кбит/сек
Каналы : 2 канала
Расположение каналов : Front: L R
Частота : 48,0 КГц
Битовая глубина : 16 бит
Метод сжатия : С потерями
Размер потока : 129 Мбайт (1%)
Заголовок : Commentary
Язык : English
Default : Нет
Forced : Нет
Текст #1
Идентификатор : 6
Формат : PGS
Режим смешивания : zlib
Идентификатор кодека : S_HDMV/PGS
Идентификатор кодека/Информация : The same subtitle format used on BDs/HD-DVDs
Язык : English
Default : Нет
Forced : Нет
Текст #2
Идентификатор : 7
Формат : PGS
Режим смешивания : zlib
Идентификатор кодека : S_HDMV/PGS
Идентификатор кодека/Информация : The same subtitle format used on BDs/HD-DVDs
Заголовок : SDH
Язык : English
Default : Нет
Forced : Нет
Текст #3
Идентификатор : 8
Формат : PGS
Режим смешивания : zlib
Идентификатор кодека : S_HDMV/PGS
Идентификатор кодека/Информация : The same subtitle format used on BDs/HD-DVDs
Заголовок : Commentary
Язык : English
Default : Нет
Forced : Нет
Меню
00:00:00.000 : en:Chapter 00
00:06:26.677 : en:Chapter 01
00:12:30.499 : en:Chapter 02
00:17:15.034 : en:Chapter 03
00:24:12.409 : en:Chapter 04
00:30:43.758 : en:Chapter 05
00:36:00.074 : en:Chapter 06
00:42:41.725 : en:Chapter 07
00:46:51.892 : en:Chapter 08
00:49:57.911 : en:Chapter 09
00:54:50.912 : en:Chapter 10
01:01:31.562 : en:Chapter 11
01:06:08.172 : en:Chapter 12
01:12:30.637 : en:Chapter 13
01:20:04.216 : en:Chapter 14
01:26:01.781 : en:Chapter 15
-Скриншоты:
-Время раздачи: С 8:00 до 22:00 до 5 скачавших

[Цитировать]

Топик был перенесен из форума Новинки кинопроката (HD Video) в форум Зарубежное кино (HD Video)
Bootch



Показать сообщения:    

Текущее время: 08-Дек 09:03

Часовой пояс: UTC + 3


Вы не можете начинать темы
Вы не можете отвечать на сообщения
Вы не можете редактировать свои сообщения
Вы не можете удалять свои сообщения
Вы не можете голосовать в опросах
Вы не можете прикреплять файлы к сообщениям
Вы не можете скачивать файлы

!ВНИМАНИЕ!
Сайт не предоставляет электронные версии произведений, а занимается лишь коллекционированием и каталогизацией ссылок, присылаемых и публикуемых на форуме нашими читателями. Если вы являетесь правообладателем какого-либо представленного материала и не желаете, чтобы ссылка на него находилась в нашем каталоге, свяжитесь с нами, и мы незамедлительно удалим ее. Файлы для обмена на трекере предоставлены пользователями сайта, и администрация не несет ответственности за их содержание. Просьба не заливать файлы, защищенные авторскими правами, а также файлы нелегального содержания!