[ Сегодня идет свободное скачивание без начисления Download ]


Статистика раздачи
Нет
 
   
 
Top  
 
 
-Хватай и беги / Hit and Run (2012) HDRip«Когда прошлое висит на хвосте»- Русское название: Хватай и беги
Оригинальное название: Hit and Run
Год выпуска: 2012
Производство: США
Жанр: Боевик, Комедия, Мелодрама
Перевод: Профессиональный (многоголосый) [лицензия]
Язык субтитров: Отсутствуют
Дата мировой премьеры: 2 августа 2012
Дата российской премьеры: 31 января 2013, «WDSSPR»
Дата выхода DVD релиза: 17 июня 2013, «Новый Диск»
Режиссер: Дэвид Палмер, Дэкс Шепард
Продюсер: Эндрю Панай, Нат Так, Ким Уалтрип
Актеры: Кристен Белл, Брэдли Купер, Кристин Ченоуэт, Дэкс Шепард, Майкл Розенбаум, Дэвид Кокнер, Бо Бриджес, Том Арнольд, Райан Хансен, Джой Брайант
Описание фильма:
Бывший грабитель банков Чарли, когда-то пошедший на сделку с правосудием, скрывается в маленьком калифорнийском городке: у него свой дом, налаженный быт и любимая девушка Энни. Когда Энни узнает, что у нее есть шанс получить работу мечты в Лос-Анджелесе, она уговаривает Чарли нарушить правила, высунуть нос из городка и отвезти ее на собеседование.
Программа по защите свидетелей дает сбой, и на след Чарли выходят его бывшие подельники, во главе с мстительным психопатом Алексом. К погоне также присоединяются неуравновешенный федеральный маршал, приставленный для охраны Чарли, и ревнивый бывший парень Энни. Вместо увеселительной прогулки Чарли ждет непрекращающаяся череда столкновений, ловушек и подстав — не говоря уже о встречах с колоритными жителями Южной Калифорнии, которые вносят дополнительные нотки сумасшествия в и без того безумную гонку.

Продолжительность: 01:39:51
Качество видео: HDRip
Видеокодек: Xvid
Битрейт видео: ~844 Kbit/s
Размер кадра: 640 x 272
Аудиокодек: MP3 2.0
Битрейт аудио: 128 Kbit/s
Сэмпл: Скачать

MediaInfo

Общее
Полное имя : D:\Торренты\РЕЛИЗЫ\Хватай и беги.HDRip.700MB.avi
Формат : AVI
Формат/Информация : Audio Video Interleave
Размер файла : 701 Мбайт
Продолжительность : 1 ч. 39 м.
Общий поток : 982 Кбит/сек
Программа кодирования : VirtualDubMod 1.5.10.2 (build 2540/release)
Библиотека кодирования : VirtualDubMod build 2540/release
Видео
Идентификатор : 0
Формат : MPEG-4 Visual
Профиль формата : Advanced Simple@L5
Параметр BVOP формата : 2
Параметр QPel формата : Нет
Параметр GMC формата : Без точки перехода
Параметр матрицы формата : Выборочная
Идентификатор кодека : XVID
Идентификатор кодека/Подсказка : XviD
Продолжительность : 1 ч. 39 м.
Битрейт : 844 Кбит/сек
Ширина : 640 пикс.
Высота : 272 пикс.
Соотношение сторон : 2,35:1
Частота кадров : 23,976 кадр/сек
Цветовое пространство : YUV
Подвыборка цветности : 4:2:0
Битовая глубина : 8 бит
Тип развёртки : Прогрессивная
Метод сжатия : С потерями
Бит/(Пиксели*Кадры) : 0.202
Размер потока : 603 Мбайт (86%)
Библиотека кодирования : XviD 1.2.1 (UTC 2008-12-04)
Аудио
Идентификатор : 1
Формат : MPEG Audio
Версия формата : Version 1
Профиль формата : Layer 3
Идентификатор кодека : 55
Идентификатор кодека/Подсказка : MP3
Продолжительность : 1 ч. 39 м.
Вид битрейта : Постоянный
Битрейт : 128 Кбит/сек
Каналы : 2 канала
Частота : 48,0 КГц
Метод сжатия : С потерями
Размер потока : 91,4 Мбайт (13%)
Выравнивание : Соединение по промежуткам
Продолжительность промежутка : 42 мс. (1,00 видеокадр)
Время предзагрузки промежутка : 504 ms
Библиотека кодирования : LAME3.99.1
Скриншоты:

Время раздачи: 24/7 по возможности

[Цитировать]

Топик был перенесен из форума Новинки кинопроката в форум Боевик
Henkok



Показать сообщения:    

Текущее время: 09-Дек 22:26

Часовой пояс: UTC + 3


Вы не можете начинать темы
Вы не можете отвечать на сообщения
Вы не можете редактировать свои сообщения
Вы не можете удалять свои сообщения
Вы не можете голосовать в опросах
Вы не можете прикреплять файлы к сообщениям
Вы не можете скачивать файлы

!ВНИМАНИЕ!
Сайт не предоставляет электронные версии произведений, а занимается лишь коллекционированием и каталогизацией ссылок, присылаемых и публикуемых на форуме нашими читателями. Если вы являетесь правообладателем какого-либо представленного материала и не желаете, чтобы ссылка на него находилась в нашем каталоге, свяжитесь с нами, и мы незамедлительно удалим ее. Файлы для обмена на трекере предоставлены пользователями сайта, и администрация не несет ответственности за их содержание. Просьба не заливать файлы, защищенные авторскими правами, а также файлы нелегального содержания!