[ Сегодня идет свободное скачивание без начисления Download ]


Статистика раздачи
Нет
 
   
 
Top  
 
 
-Хватай и беги / Hit and Run (2012) HDRip«Когда прошлое висит на хвосте»- Русское название: Хватай и беги
Оригинальное название: Hit and Run
Год выпуска: 2012
Производство: США / Exclusive Media Group, Panay Films, Primate Pictures
Жанр: Боевик, Мелодрама, Комедия
Перевод: Профессиональный (многоголосый) [лицензия]
Субтитры: Отсутствуют
Дата мировой премьеры: 2 августа 2012
Дата российской премьеры: 31 января 2013, «WDSSPR»
Дата выхода DVD релиза: 17 июня 2013, «Новый Диск»
Режиссер: Дэвид Палмер, Дэкс Шепард
Продюсер: Эндрю Панай, Нат Так, Ким Уалтрип
Актеры: Кристен Белл, Дэкс Шепард, Брэдли Купер, Том Арнольд, Кристин Ченоуэт, Майкл Розенбаум, Джой Брайант, Райан Хансен, Бо Бриджес, Шон Хейс
Описание фильма:
Бывший грабитель банков Чарли, когда-то пошедший на сделку с правосудием, скрывается в маленьком калифорнийском городке: у него свой дом, налаженный быт и любимая девушка Энни. Когда Энни узнает, что у нее есть шанс получить работу мечты в Лос-Анджелесе, она уговаривает Чарли нарушить правила, высунуть нос из городка и отвезти ее на собеседование.Программа по защите свидетелей дает сбой, и на след Чарли выходят его бывшие подельники, во главе с мстительным психопатом Алексом. К погоне также присоединяются неуравновешенный федеральный маршал, приставленный для охраны Чарли, и ревнивый бывший парень Энни. Вместо увеселительной прогулки Чарли ждет непрекращающаяся череда столкновений, ловушек и подстав — не говоря уже о встречах с колоритными жителями Южной Калифорнии, которые вносят дополнительные нотки сумасшествия в и без того безумную гонку.

Продолжительность: 01:39:51
Качество видео: HDRip
Видеокодек: Xvid
Битрейт видео: ~1505 Kbit/s
Размер кадра: 720 x 304
Аудиокодек: AC3 5.1
Битрейт аудио: 448 Kbit/s

MediaInfo

Общее
Полное имя : D:\Торренты\ФИЛЬМЫ торента\Хватай и беги.2012.HDRip.avi
Формат : AVI
Формат/Информация : Audio Video Interleave
Размер файла : 1,37 Гбайт
Продолжительность : 1 ч. 39 м.
Общий поток : 1962 Кбит/сек
Программа кодирования : VirtualDubMod 1.5.10.2 (build 2540/release)
Библиотека кодирования : VirtualDubMod build 2540/release
Видео
Идентификатор : 0
Формат : MPEG-4 Visual
Профиль формата : Advanced Simple@L5
Параметр BVOP формата : 2
Параметр QPel формата : Нет
Параметр GMC формата : Без точки перехода
Параметр матрицы формата : Выборочная
Идентификатор кодека : XVID
Идентификатор кодека/Подсказка : XviD
Продолжительность : 1 ч. 39 м.
Битрейт : 1505 Кбит/сек
Ширина : 720 пикс.
Высота : 304 пикс.
Соотношение сторон : 2,35:1
Частота кадров : 23,976 кадр/сек
Цветовое пространство : YUV
Подвыборка цветности : 4:2:0
Битовая глубина : 8 бит
Тип развёртки : Прогрессивная
Метод сжатия : С потерями
Бит/(Пиксели*Кадры) : 0.287
Размер потока : 1,05 Гбайт (77%)
Библиотека кодирования : XviD 64
Аудио
Идентификатор : 1
Формат : AC-3
Формат/Информация : Audio Coding 3
Расширение режима : CM (complete main)
Идентификатор кодека : 2000
Продолжительность : 1 ч. 39 м.
Вид битрейта : Постоянный
Битрейт : 448 Кбит/сек
Каналы : 6 каналов
Расположение каналов : Front: L C R, Side: L R, LFE
Частота : 48,0 КГц
Битовая глубина : 16 бит
Метод сжатия : С потерями
Размер потока : 320 Мбайт (23%)
Выравнивание : Разделение по промежуткам
Продолжительность промежутка : 42 мс. (1,00 видеокадр)
Время предзагрузки промежутка : 500 ms
Скриншоты:
Время раздачи: 24/7 по возможности

[Цитировать]

Топик был перенесен из форума Новинки кинопроката в форум Боевик
Henkok



Показать сообщения:    

Текущее время: 20-Фев 04:52

Часовой пояс: UTC + 3


Вы не можете начинать темы
Вы не можете отвечать на сообщения
Вы не можете редактировать свои сообщения
Вы не можете удалять свои сообщения
Вы не можете голосовать в опросах
Вы не можете прикреплять файлы к сообщениям
Вы не можете скачивать файлы

!ВНИМАНИЕ!
Сайт не предоставляет электронные версии произведений, а занимается лишь коллекционированием и каталогизацией ссылок, присылаемых и публикуемых на форуме нашими читателями. Если вы являетесь правообладателем какого-либо представленного материала и не желаете, чтобы ссылка на него находилась в нашем каталоге, свяжитесь с нами, и мы незамедлительно удалим ее. Файлы для обмена на трекере предоставлены пользователями сайта, и администрация не несет ответственности за их содержание. Просьба не заливать файлы, защищенные авторскими правами, а также файлы нелегального содержания!